PDA

Просмотр полной версии : АРАКС-Мечта


nikola69
28.03.2009, 10:36
Отрывок концерта в театре им.Спесивцева 1.12.2006.Песня "Мечта"http://www.araks-rock.ru/foto/big/06/20.jpg
Формат : AVI
Формат/Информация : Audio Video Interleave
Размер файла : 89.4 MiB
Продолжительность : 4mn 8s
Общий поток : 3 015 Kbps

Video
Формат : S-Mpeg 4 v3
Идентификатор кодека : MP43
Идентификатор кодека/Информация : Microsoft MPEG-4 V3
Продолжительность : 4mn 8s
Битрейт : 2 874 Kbps
Ширина : 720 pixels
Высота : 576 pixels
Соотношение кадра : 5/4
Частота кадров : 25.000 fps
Стандарт вещания : PAL
Разрешение : 24 bits
Бит/(Пиксели*Кадры) : 0.277
Размер потока : 85.2 MiB (95%)

Audio
Формат : MPEG Audio
Версия формата : Version 1
Профайл формата : Layer 3
Идентификатор кодека : 55
Идентификатор кодека/Подсказка : MP3
Продолжительность : 4mn 8s
Вид битрейта : Constant
Битрейт : 128 Kbps
Канал(ы) : 2 channels
Частота : 48.0 KHz
Разрешение : 16 bits
Размер потока : 3.80 MiB (4%)
Выравнивание : Aligned on interleaves
Продолжительность промежутка : 24 ms (0.60 video frame)
Время предзагрузки промежутка : 24 ms

[*** Скрытый текст ***]

GSM61
28.03.2009, 12:07
А нет ли этого концерта полностью?

nikola69
30.03.2009, 21:58
Есть скоро залью и выложу

sm0k
04.04.2009, 12:54
Отличная песня в исполнении группы,под песни которой зажигали в юности! Благодарю за запись моей любимой песни !:cm14: