Музыкальный Огонек

Музыкальный Огонек (http://shanson-e.tk/forum/index.php)
-   Toto Cutugno (http://shanson-e.tk/forum/forumdisplay.php?f=954)
-   -   Toto Cutugno - Тото Кутуньо (1984), Vinyl-rip (Lossless) (http://shanson-e.tk/forum/showthread.php?t=168421)

ooollleg 04.09.2013 19:20

Toto Cutugno - Тото Кутуньо (1984), Vinyl-rip (Lossless)
 
http://www.yapfiles.ru/files/687276/diskorig.jpg

Исполнитель: Toto Cutugno
Альбом: Тото Кутуньо (1984), Vinyl-rip
Жанр: Поп
Формат: FLAC (tracks)
Качество: Lossless
Размер архива: 91 mb + 806 мб


Содержание:

A1 · Итальянец · L'Italiano · 00:00:00
A2 · Только Мы · Solo Noi · 03:57:07
A3 · Одни · Soli · 08:00:62
A4 · Моя Женщина · Donna, Donna Mia · 12:04:48
A5 · Мне Нужна Твоя Душа · Voglio L'Anima · 15:04:21
B1 · Будь Что Будет · Sarà · 18:37:58
B2 · Влюбленные · Innamorati · 22:38:62
B3 · Моя Музыка · La Mia Musica · 26:31:07
B4 · Вспышка · Flash · 30:46:10
B5 · Женщина · Donna · 34:03:43


Комментарий к релизу:

Название:
Toto Cutugno

Исполнитель:
Toto Cutugno

Жанр: POP
Год выпуска: 1984 (запись 1983)
Количество композиций: `10
Фирма: Meлодия
Номер по каталогу: C60 22699 003
Формат: mp3 + lossless
Качество: cbr 320 kbps + flac 24 bit/96 kHz
Размер файла: 91 mb + 806 mb

предпрослушивание



Техническая информация:


- Устройство воспроизведения: электроника ЭП-017С
- Картридж: Корвет ГЗМ-028
- Предварительный усилитель: Ламповый MM RIAA винил корректор(6н9с+6н8с)
- АЦП: Creative H-Fi Elite Pro
- Программа записи: Wavelab 6
- Обработка: Нормализация по RMS,
ручное удаление сильных щелчков.
- Формат записи (Bit/kHz): 24/96
- Формат раздачи (Bit/kHz): flac 24/96; mp3-320
[свернуть]




СUE для релиза под спойлером

CUE


REM GENRE Pop
REM DATE 1984
REM COMMENT Meлодия\C60 22699 003\Vinylrip by Ollleg
PERFORMER "Тото Кутуньо"
TITLE "Тото Кутуньо"
FILE "TOTO CUTUGNO side A2.flac" WAVE
TRACK 01 AUDIO
TITLE "Итальянец · L'Italiano"
INDEX 01 00:00:00
TRACK 02 AUDIO
TITLE "Только Мы · Solo Noi"
INDEX 01 03:51:41
TRACK 03 AUDIO
TITLE "Одни · Soli"
INDEX 01 07:56:53
TRACK 04 AUDIO
TITLE "Моя Женщина · Donna, Donna Mia"
INDEX 01 12:02:53
TRACK 05 AUDIO
TITLE "Мне Нужна Твоя Душа · Voglio L'Anima"
INDEX 01 15:04:53
FILE "TOTO CUTUGNO side B.flac" WAVE
TRACK 06 AUDIO
TITLE "Будь Что Будет · Sara"
INDEX 01 00:00:00
TRACK 07 AUDIO
TITLE "Влюбленные · Innamorati"
INDEX 01 04:02:30
TRACK 08 AUDIO
TITLE "Моя Музыка · La Mia Musica"
INDEX 01 07:56:37
TRACK 09 AUDIO
TITLE "Вспышка · Flash"
INDEX 01 12:14:00
TRACK 10 AUDIO
TITLE "Женщина · Donna"
INDEX 01 15:34:04

[свернуть]


Скачать Toto Cutugno - Тото Кутуньо (1984):
Пароль к архиву: ollleg001

[*** Скрытый текст ***]


[*** Скрытый текст ***]

cudasov 02.09.2017 13:58

Отличнейшая оцифровка. Большое спасибо. Удачи вам и успехов в творчестве.

professeur 07.05.2018 06:18

what is rar password


Текущее время: 05:35. Часовой пояс GMT +4.

Powered by vBulletin® Version 3.8.9
Copyright ©2000 - 2020, vBulletin Solutions, Inc. Перевод: zCarot