Главная Форум Регистрация Поиск Сообщения за день Все разделы прочитаны Календарь Правила форума Наше радио

Вернуться   Музыкальный Огонек > СТАРАЯ ПЛАСТИНКА > Альбомы > Актёр и песня


Улыбнитесь
Чтобы вас не искусали комары - возьмите половинку лимона, бутылку текилы, солоночку соли и не ходите на улицу.

Ответ
 
Опции темы
Старый 19.05.2017, 07:31   #1
alexpika
Долгожитель
 
Аватар для alexpika
 
Группа: Участники
Регистрация: 18.11.2010
Последний визит: Сегодня
Сообщений: 711
Поблагодарил(а): 1,329
Поблагодарили: 9,449

Олег Анофриев ‎– Есть только миг...

Олег Анофриев

Есть только миг...



Олег Анофриев – это настоящий герой своего времени. Когда-то о нем знали во всех уголках Советского союза, а сегодня он, словно бы потерялся где-то в прошлом. Но что же стало с известным певцом и актером? Как протекает его карьера сегодня? И какие интересные факты можно отыскать в прошлом великого актера и музыканта? Ответы на приведенные выше вопросы ищите далее.

....далее - Википедия



Альбом: Есть только миг...
Исполнитель: Олег Анофриев
Год выпуска: 1995
Время звучания: 01:13:30
Жанр: Acoustic, Pop
Формат: FLAC (tracks)/ MP3 (320) (tracks)
Качество: Lossless
Количество треков: 24
Размер архива: flac - 426 Mb; mp3 (320kbps) - 178 Mb
Язык релиза: русский

Содержание:

1 Это было недавно (из к/ф "Друзья и годы")
2 Песня из к/ф "Путь к причалу"
3 Песня из к/ф "Там, где кончается асфальт"
4 Весенняя песенка
5 Колыбельная
6 Почтальон
7 Когда хочется петь
8 Аленушка
9 В мае
10 Палуба (из к/ф "Коллеги")
11 Водолаз
12 Все было (из к/ф "Земля Санникова")
13 Купи мне шарик
14 Песня из к/ф "Петух"
15 Что нам стоит
16 Романс Андрея (из к/ф "Жили три холостяка")
17 Тебе еще об этом не сказал
18 Есть только миг (из к/ф "Земля Санникова")
19 Для всех людей
20 Черемухи букет
21 Синий лед (из к/ф "Хоккеисты")
22 Футбольный мяч
23 Какая песня без баяна
24 Эту песню с собой возьму



сканы

[свернуть]



лог

Exact Audio Copy V1.0 beta 3 from 29. August 2011

EAC extraction logfile from 17. May 2017, 9:45

Олег Анофриев / Есть только миг...

Used drive : TSSTcorpCDDVDW SH-216DB Adapter: 0 ID: 0

Read mode : Secure
Utilize accurate stream : Yes
Defeat audio cache : Yes
Make use of C2 pointers : No

Read offset correction : 6
Overread into Lead-In and Lead-Out : No
Fill up missing offset samples with silence : Yes
Delete leading and trailing silent blocks : No
Null samples used in CRC calculations : Yes
Used interface : Native Win32 interface for Win NT & 2000

Used output format : User Defined Encoder
Selected bitrate : 1024 kBit/s
Quality : High
Add ID3 tag : No
Command line compressor : C:\Program Files (x86)\Exact Audio Copy\Flac\flac.exe
Additional command line options : -V -8 -T "Date=%year%" -T "Genre=%genre%" %source%


TOC of the extracted CD

Track | Start | Length | Start sector | End sector
---------------------------------------------------------
1 | 0:00.25 | 3:05.37 | 25 | 13936
2 | 3:05.62 | 3:26.13 | 13937 | 29399
3 | 6:32.00 | 3:05.12 | 29400 | 43286
4 | 9:37.12 | 2:41.63 | 43287 | 55424
5 | 12:19.00 | 3:22.62 | 55425 | 70636
6 | 15:41.62 | 2:58.13 | 70637 | 83999
7 | 18:40.00 | 2:39.50 | 84000 | 95974
8 | 21:19.50 | 3:46.37 | 95975 | 112961
9 | 25:06.12 | 3:15.38 | 112962 | 127624
10 | 28:21.50 | 1:57.25 | 127625 | 136424
11 | 30:19.00 | 3:11.50 | 136425 | 150799
12 | 33:30.50 | 3:22.00 | 150800 | 165949
13 | 36:52.50 | 3:20.25 | 165950 | 180974
14 | 40:13.00 | 2:52.25 | 180975 | 193899
15 | 43:05.25 | 2:22.50 | 193900 | 204599
16 | 45:28.00 | 2:04.00 | 204600 | 213899
17 | 47:32.00 | 3:03.50 | 213900 | 227674
18 | 50:35.50 | 3:44.25 | 227675 | 244499
19 | 54:20.00 | 1:52.37 | 244500 | 252936
20 | 56:12.37 | 2:32.38 | 252937 | 264374
21 | 58:45.00 | 2:40.12 | 264375 | 276386
22 | 61:25.12 | 3:16.38 | 276387 | 291124
23 | 64:41.50 | 3:51.25 | 291125 | 308474
24 | 68:33.00 | 4:58.00 | 308475 | 330824


Range status and errors

Selected range

Filename L:\Private\My Audio Ripps\ CD - RIPS\Олег Анофриев - Есть только миг\Олег Анофриев - Есть только миг...Flac\Олег Анофриев - Есть только миг....wav

Peak level 100.0 %
Extraction speed 2.4 X
Range quality 100.0 %
Test CRC 379CAC7E
Copy CRC 379CAC7E
Copy OK

No errors occurred


AccurateRip summary

Track 1 cannot be verified as accurate (confidence 2) [D9AFEBC6], AccurateRip returned [B357E986] (AR v2)
Track 2 cannot be verified as accurate (confidence 2) [0C79F204], AccurateRip returned [43F20D6F] (AR v2)
Track 3 cannot be verified as accurate (confidence 2) [A8ADC80B], AccurateRip returned [79362188] (AR v2)
Track 4 cannot be verified as accurate (confidence 2) [61D63819], AccurateRip returned [482CE5B7] (AR v2)
Track 5 cannot be verified as accurate (confidence 2) [069F71AE], AccurateRip returned [98E716A7] (AR v2)
Track 6 cannot be verified as accurate (confidence 2) [15350B99], AccurateRip returned [9C5A277E] (AR v2)
Track 7 cannot be verified as accurate (confidence 2) [03B9AC2C], AccurateRip returned [0C67D0C9] (AR v2)
Track 8 cannot be verified as accurate (confidence 2) [621B835E], AccurateRip returned [7F2CEA46] (AR v2)
Track 9 cannot be verified as accurate (confidence 2) [135E0039], AccurateRip returned [7AF67B1E] (AR v2)
Track 10 cannot be verified as accurate (confidence 2) [AD03D963], AccurateRip returned [379BB57D] (AR v2)
Track 11 cannot be verified as accurate (confidence 2) [D0F10499], AccurateRip returned [C3366AFA] (AR v2)
Track 12 cannot be verified as accurate (confidence 2) [8B69C6E5], AccurateRip returned [D454E830] (AR v2)
Track 13 cannot be verified as accurate (confidence 2) [F4A68EE1], AccurateRip returned [EA7DED57] (AR v2)
Track 14 cannot be verified as accurate (confidence 2) [6F8827BB], AccurateRip returned [9D2A2C43] (AR v2)
Track 15 cannot be verified as accurate (confidence 2) [CB91D329], AccurateRip returned [5CAB0BDD] (AR v2)
Track 16 cannot be verified as accurate (confidence 2) [791C95EB], AccurateRip returned [A1342E26] (AR v2)
Track 17 cannot be verified as accurate (confidence 2) [4DB4CF53], AccurateRip returned [F8EDCCFF] (AR v2)
Track 18 cannot be verified as accurate (confidence 2) [B7EB9602], AccurateRip returned [952D3F97] (AR v2)
Track 19 cannot be verified as accurate (confidence 2) [CBF5C2F4], AccurateRip returned [0D09958C] (AR v2)
Track 20 cannot be verified as accurate (confidence 2) [96237BB5], AccurateRip returned [5CF78C6F] (AR v2)
Track 21 cannot be verified as accurate (confidence 2) [8AA4EA54], AccurateRip returned [7FA8D0DA] (AR v2)
Track 22 cannot be verified as accurate (confidence 2) [68FE24F7], AccurateRip returned [E73C8B35] (AR v2)
Track 23 cannot be verified as accurate (confidence 2) [56E67C56], AccurateRip returned [65A39568] (AR v2)
Track 24 cannot be verified as accurate (confidence 2) [97045415], AccurateRip returned [A3F25D10] (AR v2)

No tracks could be verified as accurate
You may have a different pressing from the one(s) in the database

End of status report

==== Log checksum 2B117602D872A9BD6DD49E01D34DF9676647F4D126AB0325EC497B679C6BE85A ====
[свернуть]




Artwork – Владислав Волегов
Ensemble – Анс. Электромузыкальных Инструментов П/У В. Мещерина* (tracks: 2,3), Ансамбль п/у О. Фельцмана (tracks: 6), Инструментальный Ансамбль Под Управлением Георгия Гараняна (tracks: 12, 18, 20, 23), Инстр. Анс. П/У Чижика* (tracks: 14)
Orchestra – Эстрадный Оркестр Под Упр. В. Людвиковского* (tracks: 4, 5, 7, 19), Государственный Симфонический Оркестр Кинематографии* (tracks: 16)

CDs working surface has silver color
℗ 1995 "RDM" Co. Ltd. Отпечатано в России (Printed in Russia). СТЕРЕО (STEREO) CDRDM 512107
Изготовлено в Объединенной Европе (Made in EU).
Все права защищены (All rights reserved)

Barcode: 4600399201079
Matrix / Runout: CD RDM 512107
Mastering SID Code: IFPI L641
Mould SID Code: IFPI 1102

Рип - мой



Страна: СССР, Россия
Издатель (лейбл): RDM ‎– CDRDM 512107
Формат: FLAC / MP3 (320)
Параметры: CD, Album, Rip, image, log, cue
Источник: СД из собственной коллекции


Скрытый текст
alexpika на форумеМужчина  
Вверх
Ответ

Навигация
Вернуться   Музыкальный Огонек > Форум > СТАРАЯ ПЛАСТИНКА > Альбомы > Актёр и песня

Опции темы

Ваши права в разделе
Вы не можете создавать новые темы
Вы не можете отвечать в темах
Вы не можете прикреплять вложения
Вы не можете редактировать свои сообщения

BB коды Вкл.
Смайлы Вкл.
[IMG] код Вкл.
HTML код Выкл.







Текущее время: 08:29. Часовой пояс GMT +4.

    Для правообладателей -Обратная связь    Главная   Форум    Архив    Вверх 

Internet Map Анекдоты,музыку,рецепты и не только найдете Вы в Беседке Индекс цитирования Яндекс.Метрика

Copyright ©2004 - 2017, Музыкальный огонек - Русский шансон.

Powered by vBulletin® Version 3.8.9
Copyright ©2000 - 2017, vBulletin Solutions, Inc. Перевод: zCarot