Главная Форум Регистрация Поиск Сообщения за день Все разделы прочитаны Календарь Правила форума Наше радио

Вернуться   Музыкальный Огонек > ЗАРУБЕЖНАЯ ШКАТУЛКА > Зарубежные группы и исполнители > Поп > Исполнители


Улыбнитесь
- Ты где был? Я весь день звонил тебе на сотовый, а он всё "вне зоны доступа".
- А… Я просто телефон ношу завернутым в фольгу, чтобы он своим излучением мне на мозг не действовал!
- Мда… Ну, что сказать… Поздно ты стал телефон в фольгу заворачивать.

Ответ
 
Опции темы
Старый 21.10.2019, 09:00   #1
alexpika
Продвинутый
 
Аватар для alexpika
 
Группа: Участники
Регистрация: 18.11.2010
Последний визит: Вчера
Сообщений: 1,107
Поблагодарил(а): 1,401
Поблагодарили: 17,998

Morcheeba ‎– Parts Of The Process (2003) (Lossless)



Сборник: Morcheeba ‎– Parts Of The Process
Год выпуска: 2003
Время звучания: 01:18:29
Жанр: Electronic, Pop, Trip Hop
Формат: FLAC (image + cue)
Качество: Lossless
Количество треков: 18
Размер архива: 508 мб
Язык релиза: английский


Содержание:

1. The Sea
2. Tape Loop
3. Otherwise
4. Blindfold
5. Be Yourself
6. Part Of The Process
7. Let Me See
8. Undress Me Now
9. What's Your Name
10. Trigger Hippie
11. Rome Wasn't Build In A Day
12. Over And Over
13. What New York Couples Fight About
14. World Looking In
15. Moog Island
16. Way Beyond
17. Never An Easy Way
18. Can't Stand It





Комментарий к релизу:

Выпущен фирмой: Not On Label ‎– none
Каталог №: Unofficial Release Russia
Релиз залит на:
yand.Disс [/center]

«Parts of the Process» — сборник британской трип-хоп команды Morcheeba, вышедший в 2003 году. Почти все песни альбома кроме Shoulder Holster выпускались как синглы. Также альбом содержит несингловые треки Over And Over (из альбома Big Calm 1998 года) и What New York Couples Fight About (из альбома Charango 2002 года), а также две ранее неиздававшихся песни What’s Your Name и I Can’t Stand It. What’s Your Name, с рэп сопровождением Big Daddy Kane, был выпущен как сингл в поддержку альбома. Примерно в это же время Morcheeba выпускает также и DVD Morcheeba: From Brixton To Beijing.
Morcheeba (MOR — середина пути (англ. middle of the road), cheeba — сленговое название марихуаны — британский музыкальный коллектив, в музыке которого сочетаются такие стили как трип-хоп, ритм-энд-блюз и диско. Образован в 1995 году братьями Полом (в качестве диджея) и Россом (клавишник и гитарист) Годфри. Со времени создания и до 2003 года третьей участницей коллектива была вокалистка Скай Эдвардс, участвовавшая в записи первых четырёх альбомов Morcheeba, а после занявшаяся сольной карьерой.

Morcheeba - Википедия



Morcheeba Live in Leverkusen (Germany)

сканы






[свернуть]


лог

Exact Audio Copy V1.0 beta 3 from 29. August 2011

EAC extraction logfile from 15. October 2019, 8:26

Morcheeba / Parts Of The Process

Used drive : TSSTcorpCDDVDW SH-216DB Adapter: 0 ID: 0

Read mode : Secure
Utilize accurate stream : Yes
Defeat audio cache : Yes
Make use of C2 pointers : No

Read offset correction : 6
Overread into Lead-In and Lead-Out : No
Fill up missing offset samples with silence : Yes
Delete leading and trailing silent blocks : No
Null samples used in CRC calculations : Yes
Used interface : Native Win32 interface for Win NT & 2000

Used output format : User Defined Encoder
Selected bitrate : 1024 kBit/s
Quality : High
Add ID3 tag : No
Command line compressor : C:\Program Files (x86)\Exact Audio Copy\Flac\flac.exe
Additional command line options : -V -8 -T "Date=%year%" -T "Genre=%genre%" %source%


TOC of the extracted CD

Track | Start | Length | Start sector | End sector
---------------------------------------------------------
1 | 0:00.00 | 5:48.62 | 0 | 26161
2 | 5:48.62 | 3:50.28 | 26162 | 43439
3 | 9:39.15 | 3:44.15 | 43440 | 60254
4 | 13:23.30 | 4:39.31 | 60255 | 81210
5 | 18:02.61 | 3:15.12 | 81211 | 95847
6 | 21:17.73 | 4:26.18 | 95848 | 115815
7 | 25:44.16 | 4:22.06 | 115816 | 135471
8 | 30:06.22 | 3:28.65 | 135472 | 151136
9 | 33:35.12 | 3:55.32 | 151137 | 168793
10 | 37:30.44 | 5:34.07 | 168794 | 193850
11 | 43:04.51 | 3:35.53 | 193851 | 210028
12 | 46:40.29 | 2:22.25 | 210029 | 220703
13 | 49:02.54 | 6:18.33 | 220704 | 249086
14 | 55:21.12 | 4:07.51 | 249087 | 267662
15 | 59:28.63 | 5:20.29 | 267663 | 291691
16 | 64:49.17 | 3:33.44 | 291692 | 307710
17 | 68:22.61 | 6:43.71 | 307711 | 338006
18 | 75:06.57 | 3:22.29 | 338007 | 353185


Range status and errors

Selected range

Filename R:\Private\My Audio Ripps\Morcheeba - Parts Of The Process.wav

Peak level 100.0 %
Extraction speed 3.5 X
Range quality 100.0 %
Test CRC 107360EC
Copy CRC 107360EC
Copy OK

No errors occurred


AccurateRip summary

Track 1 not present in database
Track 2 not present in database
Track 3 not present in database
Track 4 not present in database
Track 5 not present in database
Track 6 not present in database
Track 7 not present in database
Track 8 not present in database
Track 9 not present in database
Track 10 not present in database
Track 11 not present in database
Track 12 not present in database
Track 13 not present in database
Track 14 not present in database
Track 15 not present in database
Track 16 not present in database
Track 17 not present in database
Track 18 not present in database

None of the tracks are present in the AccurateRip database

End of status report

==== Log checksum 7E676D4769DE1C721517D4A82BB251EB422B87B99762E6D08AC2992C5C51011A ====
[свернуть]


Manufactured By – Unknown (LXZ) – LXZ 060553

Producer – Pete Norris

From back cover:
℗ 2003 Universal Records © 2003 Universal Records
Made in EU.

Matrix / Runout: LXZ 060553
Barcode: 7 43357 99314 3

Дополнительно:
Рип выполнил: alexpika программой Exact Audio Copy


Скрытый текст
alexpika вне форумаМужчина  
Вверх
Ответ

Навигация
Вернуться   Музыкальный Огонек > Форум > ЗАРУБЕЖНАЯ ШКАТУЛКА > Зарубежные группы и исполнители > Поп > Исполнители

Опции темы

Ваши права в разделе
Вы не можете создавать новые темы
Вы не можете отвечать в темах
Вы не можете прикреплять вложения
Вы не можете редактировать свои сообщения

BB коды Вкл.
Смайлы Вкл.
[IMG] код Вкл.
HTML код Выкл.







Текущее время: 07:19. Часовой пояс GMT +4.

    Для правообладателей -Обратная связь    Главная   Форум    Архив    Вверх 

Internet Map Анекдоты,музыку,рецепты и не только найдете Вы в Беседке Индекс цитирования Яндекс.Метрика

Copyright ©2004 - 2019, Музыкальный огонек - Русский шансон.

Powered by vBulletin® Version 3.8.9
Copyright ©2000 - 2019, vBulletin Solutions, Inc. Перевод: zCarot