Главная Форум Регистрация Поиск Сообщения за день Все разделы прочитаны Календарь Правила форума Наше радио

Вернуться   Музыкальный Огонек > ЗАРУБЕЖНАЯ ШКАТУЛКА > Зарубежные группы и исполнители > Поп > Альбомы


Улыбнитесь
Чтобы вас не искусали комары - возьмите половинку лимона, бутылку текилы, солоночку соли и не ходите на улицу.

Ответ
 
Опции темы
Старый 16.08.2019, 10:16   #1
alexpika
Продвинутый
 
Аватар для alexpika
 
Группа: Участники
Регистрация: 18.11.2010
Последний визит: Вчера
Сообщений: 1,028
Поблагодарил(а): 1,397
Поблагодарили: 16,021

Mariah Carey - Without You (1994) (Lossless)



Исполнитель: Mariah Carey
Макси-СД: Without You
Год выпуска: 1994
Время звучания: 00:11:28
Жанр: Pop, Ballad
Формат: FLAC (image + cue)
Качество: Lossless
Количество треков: 3
Размер архива: 80 мб
Язык релиза: английский


Содержание:

1. Without You - Producer, Arranged By – Mariah Carey, Walter Afanasieff; Written-By – W.P. Ham, T. Evans - 3.34
2. Never Forget You - Producer, Arranged By – Babyface, Daryl Simmons, Mariah Carey; Written-By – Babyface, M. Carey - 3.45
3. Dreamlover (Live) - Producer, Arranged By – Dave Hall, Mariah Carey, Walter Afanasieff; Written-By – D. Hall, M. Carey - 4.09





Комментарий к релизу:

Выпущен фирмой: Columbia, Columbia ‎–
Каталог №: ‎– 659919 2, COL 659919 2
Файл раздачи: FLAC Tracks
Релиз залит на:
yand.Disс


"Without You" - макси-сингл Мэрайя Кэри, вышедший на фирме Columbia в 1994 году.
Мэрайя Кэри (англ. Mariah Carey; род. 27 марта 1969 или 1970 года — американская певица, автор песен, музыкальный продюсер, актриса и филантроп. В 1990 году под руководством исполнительного директора лейбла Columbia Records выпустила дебютный альбом "Mariah Carey", который получил четырёхкратный платиновый сертификат и включал в себя четыре хит-сингла, занявших первое место в американском чарте Billboard Hot 100. После замужества с Томми Моттолой[en] в 1993 году и успеха альбомов "Emotions" (1991), Music Box (1993) и "Merry Christmas" (1994) Мэрайя Кэри была названа самым коммерчески успешным музыкантом за всю историю лейбла Columbia.

Mariah Carey - Википедия



сканы




[свернуть]


лог

Exact Audio Copy V1.0 beta 3 from 29. August 2011

EAC extraction logfile from 9. August 2019, 10:16

Mariah Carey / Without You

Used drive : TSSTcorpCDDVDW SH-216DB Adapter: 0 ID: 0

Read mode : Secure
Utilize accurate stream : Yes
Defeat audio cache : Yes
Make use of C2 pointers : No

Read offset correction : 6
Overread into Lead-In and Lead-Out : No
Fill up missing offset samples with silence : Yes
Delete leading and trailing silent blocks : No
Null samples used in CRC calculations : Yes
Used interface : Native Win32 interface for Win NT & 2000

Used output format : User Defined Encoder
Selected bitrate : 1024 kBit/s
Quality : High
Add ID3 tag : No
Command line compressor : C:\Program Files (x86)\Exact Audio Copy\Flac\flac.exe
Additional command line options : -V -8 -T "Date=%year%" -T "Genre=%genre%" %source%


TOC of the extracted CD

Track | Start | Length | Start sector | End sector
---------------------------------------------------------
1 | 0:00.00 | 3:36.05 | 0 | 16204
2 | 3:36.05 | 3:44.17 | 16205 | 33021
3 | 7:20.22 | 4:09.63 | 33022 | 51759


Range status and errors

Selected range

Filename R:\Private\My Audio Ripps\Mariah Carey - Without You.wav

Peak level 96.9 %
Extraction speed 2.1 X
Range quality 100.0 %
Test CRC 1AB4732A
Copy CRC 1AB4732A
Copy OK

No errors occurred


AccurateRip summary

Track 1 accurately ripped (confidence 82) [3E0FD045] (AR v2)
Track 2 accurately ripped (confidence 81) [6236F4C9] (AR v2)
Track 3 accurately ripped (confidence 80) [62C9F1FE] (AR v2)

All tracks accurately ripped

End of status report

==== Log checksum 893F76D6D1EC7D43D88BBAB5354EC99306AC77AA301E76C150D1EB5735A24F66 ====
[свернуть]


Phonographic Copyright (p) – Sony Music Entertainment Inc.
Copyright (c) – Sony Music Entertainment Inc.
Distributed By – Sony Music
Glass Mastered At – DADC Austria
Recorded At – Proctor's Theater
Published By – 100% Apple Music
Published By – WB Music Corp.
Published By – Sony Songs Inc.
Published By – Rye Songs
Published By – ECAF Music
Published By – Stonejam Publishing Co.
Published By – Ness, Nitty & Capone
Produced For – ECAF Productions, Inc.
Produced For – Untouchables Entertainment

"Without You" Published by 100% Apple Music (admin. by WB Music Corp.)
"Never Forget You" Published by Sony Songs, Inc. / Rye Songs / ECAF Music.
"Dreamlover" Published by Rye Songs / Sony Songs, Inc. / Stonejam Publishing Co. / Ness, Nitty & Capone.
Recorded live at Proctor's Theater in Schenectady, New York - July 15 & 16, 1993.

Track 2: Produced and arranged for ECAF, Inc.
Track 3: Produced and arranged for Untouchables Entertainment

Tracks 1 & 2: Taken from the Columbia release: "Music Box"

Original sound recording made by Sony Music Entertainment Inc.
The copyright in this sound recording is owned by Sony Music Entertainment Inc.
℗ 1993 Sony Music Entertainment Inc.
© 1994 Sony Music Entertainment Inc.
Distribution Sony Music

Made in Austria.

Barcode (Text): 5 099765 991925
Barcode (Scanned): 5099765991925
Matrix / Runout (Mirrored, variant 1): [DADC Austria logo] 01-659919-14 32 A4
Matrix / Runout (Mirrored, variant 2): [DADC Austria logo] 01-659919-14 32 B2
Matrix / Runout (Mirrored, variant 3): [DADC Austria logo] 01-659919-14 32 B7
Matrix / Runout (Mirrored, variant 4): [DADC Austria logo] 01-659919-14 32 B8
Label Code: LC 0162
Rights Society (Boxed): SACEM SDRM SACD SGDL
Rights Society: BIEM
Other (Maxi single format indicator): CD-MS
Price Code: CB 608
Other (Manufacturing code): 01-659919-14

Дополнительно:
Оцифровку выполнил: alexpika
Звуковая аудиокарта: Realtek ALC662
Рип сделан программой: Exact Audio Copy


Скрытый текст
alexpika вне форумаМужчина  
Вверх
Ответ

Навигация
Вернуться   Музыкальный Огонек > Форум > ЗАРУБЕЖНАЯ ШКАТУЛКА > Зарубежные группы и исполнители > Поп > Альбомы

Опции темы

Ваши права в разделе
Вы не можете создавать новые темы
Вы не можете отвечать в темах
Вы не можете прикреплять вложения
Вы не можете редактировать свои сообщения

BB коды Вкл.
Смайлы Вкл.
[IMG] код Вкл.
HTML код Выкл.







Текущее время: 02:18. Часовой пояс GMT +4.

    Для правообладателей -Обратная связь    Главная   Форум    Архив    Вверх 

Internet Map Анекдоты,музыку,рецепты и не только найдете Вы в Беседке Индекс цитирования Яндекс.Метрика

Copyright ©2004 - 2019, Музыкальный огонек - Русский шансон.

Powered by vBulletin® Version 3.8.9
Copyright ©2000 - 2019, vBulletin Solutions, Inc. Перевод: zCarot