Главная Форум Регистрация Поиск Сообщения за день Все разделы прочитаны Календарь Правила форума Наше радио

Вернуться   Музыкальный Огонек > ЗАРУБЕЖНАЯ ШКАТУЛКА > Зарубежные группы и исполнители > Поп > Исполнители > Patricia Kaas


Улыбнитесь
Сказка: Жили-были дедушка и бабушка. И была у них курочка Ряба. И снесла курочка яичко, не простое - а золотое... Дедушка удивился. Бабушка тоже удивилась. А петушок не удивился. Он пошел и индюку морду набил.

Ответ
 
Опции темы
Старый 05.05.2017, 07:05   #1
alexpika
Продвинутый
 
Аватар для alexpika
 
Группа: Участники
Регистрация: 18.11.2010
Последний визит: Сегодня
Сообщений: 1,058
Поблагодарил(а): 1,397
Поблагодарили: 16,797

Patricia Kaas ‎– Piano Bar (Limited Edition)

Patricia Kaas

Piano Bar



"Piano Bar" - 6-й студийный альбом Патрисии Каас.
Патри́сия Каа́с (фр. Patricia Kaas; род. 5 декабря 1966, Форбак, департамент Мозель, Франция) — французская эстрадная певица и актриса. Стилистически музыка певицы — это смесь поп-музыки и джаза. С момента выхода дебютного альбома Каас «Мадмуазель поёт…» (Mademoiselle chante…) в 1988 году во всём мире было продано более 17 миллионов записей её выступлений. Особо популярна во франкофонных и немецкоговорящих странах, а также в СССР/России. Существенная часть её формулы успеха — это постоянные гастроли: Каас практически всё время находится в заграничных турне. Представляла Францию на конкурсе песни «Евровидение» 2009 года и заняла 8 место.


Альбом: Piano Bar (Limited Edition)
Исполнитель: Patricia Kaas
Год выпуска: 2002
Время звучания: 00:56:19
Жанр: Smooth Jazz, Easy Listening
Формат: FLAC (tracks)/ MP3 (320) (tracks)
Качество: Lossless
Количество треков: 15
Размер архива: flac - 339 Mb; mp3 (320kbps) - 147 Mb
Язык релиза: французский, английский

Содержание:

1 My Man (Mon Homme) 3:41
2 If You Go Away (Ne Me Quitte Pas) 4:26
3 What Now My Love (Et Maintenant) 3:59
4 Un Homme Et Une Femme 3:19
5 The Summer Knows (Une Ete 42) 3:54
6 I Wish You Love (Que Reste-t-il De Nos Amours ?) 3:59
7 Yesterday When I Was Young (Hier Encore) 3:59
8 Les Moulins De Mon Coeur (The Windmills Of Your Mind) 3:44
9 Autumn Leaves (Les Feuilles Mortes) 4:05
10 Where Do I Begin (Love Story) 3:45
11 Syracuse 3:28
12 La Mer 3:50
13 Avec Le Temps 2:37
14 If You Go Away (Remix) 4:15
15 And Now... Ladies And Gentlemen (Generique) 3:18


Буклет

[свернуть]



лог

Exact Audio Copy V1.0 beta 3 from 29. August 2011

EAC extraction logfile from 22. April 2017, 8:59

Kaas, Patricia / Piano Bar

Used drive : TSSTcorpCDDVDW SH-216DB Adapter: 0 ID: 0

Read mode : Secure
Utilize accurate stream : Yes
Defeat audio cache : Yes
Make use of C2 pointers : No

Read offset correction : 6
Overread into Lead-In and Lead-Out : No
Fill up missing offset samples with silence : Yes
Delete leading and trailing silent blocks : No
Null samples used in CRC calculations : Yes
Used interface : Native Win32 interface for Win NT & 2000

Used output format : User Defined Encoder
Selected bitrate : 1024 kBit/s
Quality : High
Add ID3 tag : No
Command line compressor : C:\Program Files (x86)\Exact Audio Copy\Flac\flac.exe
Additional command line options : -V -8 -T "Date=%year%" -T "Genre=%genre%" %source%


TOC of the extracted CD

Track | Start | Length | Start sector | End sector
---------------------------------------------------------
1 | 0:00.00 | 3:41.02 | 0 | 16576
2 | 3:41.02 | 4:26.73 | 16577 | 36599
3 | 8:08.00 | 3:59.17 | 36600 | 54541
4 | 12:07.17 | 3:19.70 | 54542 | 69536
5 | 15:27.12 | 3:54.33 | 69537 | 87119
6 | 19:21.45 | 3:59.30 | 87120 | 105074
7 | 23:21.00 | 3:53.01 | 105075 | 122550
8 | 27:14.01 | 3:44.15 | 122551 | 139365
9 | 30:58.16 | 4:05.65 | 139366 | 157805
10 | 35:04.06 | 3:45.00 | 157806 | 174680
11 | 38:49.06 | 3:28.22 | 174681 | 190302
12 | 42:17.28 | 3:50.58 | 190303 | 207610
13 | 46:08.11 | 2:37.17 | 207611 | 219402
14 | 48:45.28 | 4:15.51 | 219403 | 238578
15 | 53:01.04 | 3:18.06 | 238579 | 253434


Range status and errors

Selected range

Filename L:\Private\My Audio Ripps\ CD - RIPS\Kaas, Patricia - Piano Bar\Kaas, Patricia - Piano Bar.wav

Peak level 100.0 %
Extraction speed 6.8 X
Range quality 99.9 %
Test CRC F31B9FBC
Copy CRC F31B9FBC
Copy OK

No errors occurred


AccurateRip summary

Track 1 accurately ripped (confidence 38) [265D1738] (AR v2)
Track 2 accurately ripped (confidence 38) [B09146A5] (AR v2)
Track 3 accurately ripped (confidence 39) [2CE65D89] (AR v2)
Track 4 accurately ripped (confidence 38) [F9936869] (AR v2)
Track 5 accurately ripped (confidence 39) [71FE3A5D] (AR v2)
Track 6 accurately ripped (confidence 39) [B7687F23] (AR v2)
Track 7 accurately ripped (confidence 37) [33260C3A] (AR v2)
Track 8 accurately ripped (confidence 39) [75C3EF18] (AR v2)
Track 9 accurately ripped (confidence 38) [3AE2E189] (AR v2)
Track 10 accurately ripped (confidence 38) [9E6FC9C8] (AR v2)
Track 11 accurately ripped (confidence 37) [DEF18958] (AR v2)
Track 12 accurately ripped (confidence 37) [49D315B0] (AR v2)
Track 13 accurately ripped (confidence 37) [88C8FD9A] (AR v2)
Track 14 accurately ripped (confidence 38) [4922ECE9] (AR v2)
Track 15 accurately ripped (confidence 38) [FDC6DEC8] (AR v2)

All tracks accurately ripped

End of status report

==== Log checksum 298EA0B005384A1B200E565FF615A30E890A33F8E498ECF416476AB33895AC7E ====
[свернуть]



Phonographic Copyright (p) – Sony Music Entertainment (Holland) B.V.
Copyright (c) – Sony Music Entertainment (France) S.A.
Pressed By – Sony Music – S5061695000-0101

Arranged By – Robin Millar (tracks: 1 to 13, 15)
Producer – Michel Legrand (tracks: 15), Rob Davis (4) (tracks: 14), Robin Millar (tracks: 1 to 13, 15)

Cover and spines read "Piano Bar by Patricia Kaas".

Released in a 3 panel digipak with a 20 page booklet. May carry a sticker: "Songs aus dem film [sic] von Claude Lelouch | Limitierte Erstauflage inkl. « Avec le temps » | 5061695000".

Track 13: Bonus
Barcode und andere Identifikationsmerkmale

Barcode (Text): 5 099750 616956
Barcode (String): 5099750616956
Matrix / Runout: Sony Music S5061695000-0101 15 A2
Mastering SID Code: IFPI L555
Mould SID Code: IFPI 94V2
Rights Society: SACEM/SACD/SDRM/SGDL BIEM
Label Code: LC 00162
Other (Distribution Code): CB 821

Рип - мой



Страна: Europa
Издатель (лейбл): Columbia ‎– COL 506169-5, Columbia ‎– 5061695000
Формат: FLAC / MP3 (320)
Параметры: CD, Album, Limited Edition, Rip, image, log, cue;
Источник: СД-бокс из собственной коллекции


Скрытый текст
alexpika на форумеМужчина  
Вверх
Ответ

Навигация
Вернуться   Музыкальный Огонек > Форум > ЗАРУБЕЖНАЯ ШКАТУЛКА > Зарубежные группы и исполнители > Поп > Исполнители > Patricia Kaas

Опции темы

Ваши права в разделе
Вы не можете создавать новые темы
Вы не можете отвечать в темах
Вы не можете прикреплять вложения
Вы не можете редактировать свои сообщения

BB коды Вкл.
Смайлы Вкл.
[IMG] код Вкл.
HTML код Выкл.







Текущее время: 09:11. Часовой пояс GMT +4.

    Для правообладателей -Обратная связь    Главная   Форум    Архив    Вверх 

Internet Map Анекдоты,музыку,рецепты и не только найдете Вы в Беседке Индекс цитирования Яндекс.Метрика

Copyright ©2004 - 2019, Музыкальный огонек - Русский шансон.

Powered by vBulletin® Version 3.8.9
Copyright ©2000 - 2019, vBulletin Solutions, Inc. Перевод: zCarot