Главная Форум Регистрация Поиск Сообщения за день Все разделы прочитаны Календарь Правила форума Наше радио

Вернуться   Музыкальный Огонек > ЗАРУБЕЖНАЯ ШКАТУЛКА > Зарубежные группы и исполнители > Поп > Исполнители > Tom Jones


Улыбнитесь
Приятель рассказывал как, перечитывая давеча "Войну и мир", и, наткнувшись на фразу "Пьер Безухов распечатал письмо", минут пять пытался понять: каким образом ему это удалось и где он нашел принтер.

Ответ
 
Опции темы
Старый 05.08.2019, 08:58   #1
alexpika
Продвинутый
 
Аватар для alexpika
 
Группа: Участники
Регистрация: 18.11.2010
Последний визит: Сегодня
Сообщений: 1,070
Поблагодарил(а): 1,397
Поблагодарили: 16,873

Tom Jones ‎– Stop Breaking My Heart (1989) (Lossless)



Сборник: Tom Jones ‎– Stop Breaking My Heart
Год выпуска: 1989
Время звучания: 00:47:35
Жанр: Поп
Формат: FLAC (image + cue)
Качество: Lossless
Количество треков: 20
Размер архива: 290 мб
Язык релиза: английский


Содержание:

1. Stop Breaking My Heart * - 2.32
2. Before - 2.12
3. Once In A While - 1.53
4. Triple Cross (From The Film Triple Cross) - 2.28
5. Shake - 2.24
6. If I Had You - 2.13
7. It Ain't Gonna Be That Way - 2.17
8. How Do You Say Goodbye - 3.06
9. Things I Wanna Do - 2.28
10. For The First Time In My Life - 2.38
11. Tupelo Mississippi Flash - 3.03
12. The Lonely One - 2.38
13. Smile - 2.12
14. Day By Day - 2.35
15. Out In The Cold Again - 2.53
16. An Unfinished Song - 2.46
17. The Man Who Knows Too Much * - 3.36
18. A Minute Of Your Time * - 2.55
19. With One Exception * - 2.48
20. It's Not Unusual * - 1.58





Комментарий к релизу:

Выпущен фирмой: Deram
Каталог №: 820 773-2
Файл раздачи: FLAC + cue
Релиз залит на:
yand.Disс

"Stop Breaking My Heart" - сборник хитов Тома Джонса разных лет. Выпущен в Германии фирмой DERAM в 1989 году.
Сэр Том Джонс (англ. Tom Jones; настоящее имя сэр Томас Джонс Вудворд, Thomas Jones Woodward; род. 7 июня 1940) — британский эстрадный певец родом из Уэльса, чьи красочные шоу и эмоциональные песни принесли ему в середине 1960-х годов широкую популярность. К концу 1980-х гг. было продано уже более 100 млн пластинок исполнителя. В 1999 году — лучший певец года. В начале 2000-х получил из рук королевы Соединённого Королевства Орден Британской Империи за заслуги перед государством. Несмотря на то, что за такой большой промежуток времени он испробовал практически все разновидности поп-музыки (будь то ритм-энд-блюз, соул, поп-рок, кантри и даже техно-дэнс), его имидж претерпевал минимальные изменения.

Tom Jones - Википедия



сканы






[свернуть]


лог

Exact Audio Copy V1.0 beta 3 from 29. August 2011

EAC extraction logfile from 4. August 2019, 9:38

Tom Jones / Stop breaking my heart

Used drive : TSSTcorpCDDVDW SH-216DB Adapter: 0 ID: 0

Read mode : Secure
Utilize accurate stream : Yes
Defeat audio cache : Yes
Make use of C2 pointers : No

Read offset correction : 6
Overread into Lead-In and Lead-Out : No
Fill up missing offset samples with silence : Yes
Delete leading and trailing silent blocks : No
Null samples used in CRC calculations : Yes
Used interface : Native Win32 interface for Win NT & 2000

Used output format : User Defined Encoder
Selected bitrate : 1024 kBit/s
Quality : High
Add ID3 tag : No
Command line compressor : C:\Program Files (x86)\Exact Audio Copy\Flac\flac.exe
Additional command line options : -V -8 -T "Date=%year%" -T "Genre=%genre%" %source%


TOC of the extracted CD

Track | Start | Length | Start sector | End sector
---------------------------------------------------------
1 | 0:00.33 | 2:29.25 | 33 | 11232
2 | 2:29.58 | 2:19.25 | 11233 | 21682
3 | 4:49.08 | 1:59.55 | 21683 | 30662
4 | 6:48.63 | 2:37.55 | 30663 | 42492
5 | 9:26.43 | 2:28.67 | 42493 | 53659
6 | 11:55.35 | 2:20.23 | 53660 | 64182
7 | 14:15.58 | 2:23.25 | 64183 | 74932
8 | 16:39.08 | 3:14.27 | 74933 | 89509
9 | 19:53.35 | 2:30.38 | 89510 | 100797
10 | 22:23.73 | 2:37.72 | 100798 | 112644
11 | 25:01.70 | 3:05.18 | 112645 | 126537
12 | 28:07.13 | 2:39.67 | 126538 | 138529
13 | 30:47.05 | 2:13.70 | 138530 | 148574
14 | 33:01.00 | 2:36.35 | 148575 | 160309
15 | 35:37.35 | 2:55.48 | 160310 | 173482
16 | 38:33.08 | 2:48.25 | 173483 | 186107
17 | 41:21.33 | 3:42.00 | 186108 | 202757
18 | 45:03.33 | 3:00.55 | 202758 | 216312
19 | 48:04.13 | 2:55.20 | 216313 | 229457
20 | 50:59.33 | 2:01.40 | 229458 | 238572


Range status and errors

Selected range

Filename R:\Private\My Audio Ripps\Tom Jones - Stop breaking my heart.wav

Peak level 100.0 %
Extraction speed 2.4 X
Range quality 100.0 %
Test CRC C375A460
Copy CRC C375A460
Copy OK

No errors occurred


AccurateRip summary

Track 1 accurately ripped (confidence 1) [C33DEFDF] (AR v2)
Track 2 accurately ripped (confidence 1) [B9009C67] (AR v2)
Track 3 accurately ripped (confidence 1) [653D3496] (AR v2)
Track 4 accurately ripped (confidence 1) [4E3A3E52] (AR v2)
Track 5 accurately ripped (confidence 1) [EF737BB4] (AR v2)
Track 6 accurately ripped (confidence 1) [4C2AD56A] (AR v2)
Track 7 accurately ripped (confidence 1) [D9F406A3] (AR v2)
Track 8 accurately ripped (confidence 1) [ED4DFC56] (AR v2)
Track 9 accurately ripped (confidence 1) [202807F1] (AR v2)
Track 10 accurately ripped (confidence 1) [32451FFC] (AR v2)
Track 11 accurately ripped (confidence 1) [7545EDD5] (AR v2)
Track 12 accurately ripped (confidence 1) [AF1052C9] (AR v2)
Track 13 accurately ripped (confidence 1) [E60C3A9E] (AR v2)
Track 14 accurately ripped (confidence 1) [79A88CF1] (AR v2)
Track 15 accurately ripped (confidence 1) [630C60EB] (AR v2)
Track 16 accurately ripped (confidence 1) [4BD5B75A] (AR v2)
Track 17 accurately ripped (confidence 1) [86C91848] (AR v2)
Track 18 accurately ripped (confidence 1) [1C95BBD8] (AR v2)
Track 19 accurately ripped (confidence 1) [A1B24879] (AR v2)
Track 20 accurately ripped (confidence 1) [37DF95FD] (AR v2)

All tracks accurately ripped

End of status report

==== Log checksum C9FEE46F34844D6653FB58A9E5FD345926508942F1C1E05DC91E99D84B0E9F22 ====
[свернуть]



Unternehmen usw.

Phonographic Copyright (p) – The Decca Record Company Limited

Anmerkungen
Tracks with * are stereo
Barcode und andere Identifikationsmerkmale

Barcode: 0 42282 07732 5

Дополнительно:
Оцифровку выполнил: alexpika
Звуковая аудиокарта: Realtek High Definition Audio
Оцифрован программой: Exact Audio Copy


Скрытый текст
alexpika вне форумаМужчина  
Вверх
Ответ

Навигация
Вернуться   Музыкальный Огонек > Форум > ЗАРУБЕЖНАЯ ШКАТУЛКА > Зарубежные группы и исполнители > Поп > Исполнители > Tom Jones

Опции темы

Ваши права в разделе
Вы не можете создавать новые темы
Вы не можете отвечать в темах
Вы не можете прикреплять вложения
Вы не можете редактировать свои сообщения

BB коды Вкл.
Смайлы Вкл.
[IMG] код Вкл.
HTML код Выкл.







Текущее время: 19:19. Часовой пояс GMT +4.

    Для правообладателей -Обратная связь    Главная   Форум    Архив    Вверх 

Internet Map Анекдоты,музыку,рецепты и не только найдете Вы в Беседке Индекс цитирования Яндекс.Метрика

Copyright ©2004 - 2019, Музыкальный огонек - Русский шансон.

Powered by vBulletin® Version 3.8.9
Copyright ©2000 - 2019, vBulletin Solutions, Inc. Перевод: zCarot