Главная Форум Регистрация Поиск Сообщения за день Все разделы прочитаны Календарь Правила форума Наше радио

Вернуться   Музыкальный Огонек > КЛАССИКА, ДЕТСКИЕ, РАДИО > Детские, опера, балет, классика, радио > Классические альбомы и сборники


Улыбнитесь
- Алло, это дурдом?
- Нет, это квартира! Хотя, знаете, могу позвать жену или тёщу.

Ответ
 
Опции темы
Старый 17.09.2019, 09:38   #1
alexpika
Продвинутый
 
Аватар для alexpika
 
Группа: Участники
Регистрация: 18.11.2010
Последний визит: Вчера
Сообщений: 1,073
Поблагодарил(а): 1,397
Поблагодарили: 16,924

Rossini - Overtures (1991) (Lossless)



Сборник: Rossini - Overtures
Год выпуска: 1991
Время звучания: 00:51:33
Жанр: Классика
Формат: FLAC (image + cue)
Качество: Lossless
Количество треков: 5
Размер архива: 239 мб


Содержание:

01. London Festival Orchestra, Cond. Alfred Scholz - Rossini - Overtures - Willhelm Tell - 12.59
02 London Festival Orchestra Cond. Alfred Scholz - Rossini - Overtures - Der Barbier von Sevilla - 7.45
03 Philharmonia Slavonica, Cond. Henry Adolph - Rossini - Overtures - Die diebische Elster - 10.40
04 Philharmonia Slavonica Cond. Henry Adolph - Rossini - Overtures - Die Italienerin in Algier - 8.02
05 Philharmonia Slavonica Cond. Henry Adolph - Rossini - Overtures - Semiramis - 12.47





Комментарий к релизу:

Выпущен фирмой: ZYX Classic
Каталог №: CLS 4148
Файл раздачи: FLAC + cue
Вес архива: 239 Mb
Релиз залит на:
yand.Disс

"Gioacchino Antonio Rossini (1792 - 1868) - Overtures" - компиляция увертюр Джоаккино Антонио Россини из коллекции произведений классической музыки, выпущенных немецкой фирмой Bernhard Mikulski Schalplatten Vertiebs Gmbh, дочерней компании лейбла ZYX Classic в 1991 году.
Джоаккино Антонио Россини (итал. Gioachino Antonio Rossini[5]; 29 февраля 1792 — 13 ноября 1868) — итальянский композитор, автор 39 опер, духовной и камерной музыки. Его самые известные оперы — это итальянские оперы-буффа «Севильский цирюльник» и «Золушка» и франкоязычные эпопеи «Моисей в Египте» и «Вильгельм Телль». Склонность к вдохновенным, песенным мелодиям — одна из ведущих черт творчества Россини, благодаря которой его прозвали «итальянским Моцартом».

Джоаккино Антонио Россини - Википедия

сканы





[свернуть]


лог

Exact Audio Copy V1.0 beta 3 from 29. August 2011

EAC extraction logfile from 6. September 2019, 9:22

London Festival Orchestra Cond. Alfred Scholz. Philharmonia Slavonica Cond. Henry Adolph / Rossini - Overtures

Used drive : TSSTcorpCDDVDW SH-216DB Adapter: 0 ID: 0

Read mode : Secure
Utilize accurate stream : Yes
Defeat audio cache : Yes
Make use of C2 pointers : No

Read offset correction : 6
Overread into Lead-In and Lead-Out : No
Fill up missing offset samples with silence : Yes
Delete leading and trailing silent blocks : No
Null samples used in CRC calculations : Yes
Used interface : Native Win32 interface for Win NT & 2000

Used output format : User Defined Encoder
Selected bitrate : 1024 kBit/s
Quality : High
Add ID3 tag : No
Command line compressor : C:\Program Files (x86)\Exact Audio Copy\Flac\flac.exe
Additional command line options : -V -8 -T "Date=%year%" -T "Genre=%genre%" %source%


TOC of the extracted CD

Track | Start | Length | Start sector | End sector
---------------------------------------------------------
1 | 0:00.00 | 12:59.10 | 0 | 58434
2 | 12:59.10 | 7:44.38 | 58435 | 93272
3 | 20:43.48 | 10:40.32 | 93273 | 141304
4 | 31:24.05 | 8:02.28 | 141305 | 177482
5 | 39:26.33 | 12:46.52 | 177483 | 234984


Range status and errors

Selected range

Filename R:\Private\My Audio Ripps\London Festival Orchestra Cond. Alfred Scholz. Philharmonia Slavonica Cond. Henry Adolph - Rossini - Overtures.wav

Peak level 91.9 %
Extraction speed 4.2 X
Range quality 100.0 %
Test CRC 7EBAA5C6
Copy CRC 7EBAA5C6
Copy OK

No errors occurred


AccurateRip summary

Track 1 accurately ripped (confidence 9) [3DF3F76B] (AR v2)
Track 2 accurately ripped (confidence 10) [592D2C43] (AR v2)
Track 3 accurately ripped (confidence 10) [99C00FC5] (AR v2)
Track 4 accurately ripped (confidence 10) [83E8F852] (AR v2)
Track 5 accurately ripped (confidence 10) [DF98DB03] (AR v2)

All tracks accurately ripped

End of status report

==== Log checksum 6E93261F9E7EC1F9F610A2A2CA8D109BDEE0FA8D21468208A1B7D7779596A682 ====
[свернуть]


Дополнительно:
Рип выполнил: shurele программой Exact Audio Copy


Скрытый текст
alexpika вне форумаМужчина  
Вверх
Старый 17.09.2019, 20:22   #2
Falas
Старожил
 
Аватар для Falas
 
Группа: Участники
Регистрация: 11.10.2010
Последний визит: Вчера
Сообщений: 126
Поблагодарил(а): 3,169
Поблагодарили: 35

Спасибо за классику!
Falas вне форумаМужчина  
Вверх
Ответ

Навигация
Вернуться   Музыкальный Огонек > Форум > КЛАССИКА, ДЕТСКИЕ, РАДИО > Детские, опера, балет, классика, радио > Классические альбомы и сборники

Опции темы

Ваши права в разделе
Вы не можете создавать новые темы
Вы не можете отвечать в темах
Вы не можете прикреплять вложения
Вы не можете редактировать свои сообщения

BB коды Вкл.
Смайлы Вкл.
[IMG] код Вкл.
HTML код Выкл.







Текущее время: 02:55. Часовой пояс GMT +4.

    Для правообладателей -Обратная связь    Главная   Форум    Архив    Вверх 

Internet Map Анекдоты,музыку,рецепты и не только найдете Вы в Беседке Индекс цитирования Яндекс.Метрика

Copyright ©2004 - 2019, Музыкальный огонек - Русский шансон.

Powered by vBulletin® Version 3.8.9
Copyright ©2000 - 2019, vBulletin Solutions, Inc. Перевод: zCarot