Главная Форум Регистрация Поиск Сообщения за день Все разделы прочитаны Календарь Правила форума Наше радио

Вернуться   Музыкальный Огонек > ИНСТРУМЕНТАЛЬНАЯ, ДЖАЗ, БЛЮЗ > Инструменталка, Джаз, Блюз > Джаз, блюз > Сборники


Улыбнитесь
Приятель рассказывал как, перечитывая давеча "Войну и мир", и, наткнувшись на фразу "Пьер Безухов распечатал письмо", минут пять пытался понять: каким образом ему это удалось и где он нашел принтер.

Ответ
 
Опции темы
Старый 15.02.2021, 20:13   #1
alexpika
Продвинутый
 
Аватар для alexpika
 
Группа: Участники
Регистрация: 18.11.2010
Последний визит: Сегодня
Сообщений: 1,788
Поблагодарил(а): 1,550
Поблагодарили: 35,922

Various Artists - The World Of Jazz (1995) (Lossless)



Исполнитель: Various Artists
Альбом: The World Of Jazz
Год выпуска: 1995
Время звучания: 01:31:16
Жанр: Jazz
Формат: FLAC (image + cue)
Качество: Lossless
Количество треков: 22
Размер архива: CD 1 - 231 mb CD 2 - 236 mb
Язык релиза: английский

Содержание:

1-1 –Art Blakey's Big Band Ain't Life Grand 3:21
1-2 –Duke Ellington Summertime 2:12
1-3 –Billie Holiday I Don't Stand A Ghost Of A Chance With You 3:40
1-4 –Bob James Trio Explosions 5:42
1-5 –Bud Powell How High The Moon 2:57
1-6 –Dexter Gordon Autumn In New York 6:27
1-7 –Charlie Parker Groovin' High 5:55
1-8 –Nina Simone Mood Indigo 4:00
1-9 –Charlie Mingus East Coasting 5:10
1-10 –Mel Tormé Isn't It Romantic 3:38
1-11 –Herbie Mann There's No You 4:12

2-1 –Bud Powell Night In Tunesia 7:00
2-2 –Nina Simone My Baby Just Cares For Me 3:33
2-3 –Duke Ellington Cotton Tail 2:50
2-4 –Carmen McRae Old Devil Moon 2:37
2-5 –Charlie Parker Ornithology 4:47
2-6 –Paul Bley Trio Closer 3:34
2-7 –Albert Ayler Prophet 5:36
2-8 –Herbie Mann The Surrey With The Fringe On Top 2:39
2-9 –Charlie Mariano Smoke Gets In Your Eyes 3:09
2-10 –Zoot Sims Jive At Five 5:15
2-11 –Billie Holiday Billie's Blues 3:42





Комментарий к релизу:

"Various ‎– The World Of Jazz" - двухдисковый сборник, представляющий слушателю лучшие образцы джазовой музыки прошлого столетия в исполнении знаменитых мастеров вокала и оркестрового исполнения.

сканы






[свернуть]


лог 1 диск

Exact Audio Copy V1.6 from 23. October 2020

EAC extraction logfile from 12. February 2021, 21:04

Various Artists / Various ‎– The World Of Jazz CD 1

Used drive : TSSTcorpCDDVDW SH-216DB Adapter: 1 ID: 0

Read mode : Secure
Utilize accurate stream : Yes
Defeat audio cache : Yes
Make use of C2 pointers : No

Read offset correction : 6
Overread into Lead-In and Lead-Out : No
Fill up missing offset samples with silence : Yes
Delete leading and trailing silent blocks : No
Null samples used in CRC calculations : Yes
Used interface : Native Win32 interface for Win NT & 2000

Used output format : User Defined Encoder
Selected bitrate : 1024 kBit/s
Quality : High
Add ID3 tag : No
Command line compressor : C:\Program Files (x86)\Exact Audio Copy\Flac\flac.exe
Additional command line options : -V -8 -T "Date=%year%" -T "Genre=%genre%" %source%

TOC of the extracted CD

Track | Start | Length | Start sector | End sector
---------------------------------------------------------
1 | 0:00.00 | 3:24.25 | 0 | 15324
2 | 3:24.25 | 2:12.00 | 15325 | 25224
3 | 5:36.25 | 3:39.62 | 25225 | 41711
4 | 9:16.12 | 5:44.00 | 41712 | 67511
5 | 15:00.12 | 2:59.38 | 67512 | 80974
6 | 17:59.50 | 6:28.37 | 80975 | 110111
7 | 24:28.12 | 4:48.63 | 110112 | 131774
8 | 29:17.00 | 4:03.00 | 131775 | 149999
9 | 33:20.00 | 5:12.37 | 150000 | 173436
10 | 38:32.37 | 3:40.13 | 173437 | 189949
11 | 42:12.50 | 4:13.32 | 189950 | 208956

Range status and errors

Selected range

Filename R:\Private\My Audio Ripps\Various Artists - Various ‎– The World Of Jazz CD 1.wav

Peak level 100.0 %
Extraction speed 2.8 X
Range quality 100.0 %
Test CRC DB76DD98
Copy CRC DB76DD98
Copy OK

No errors occurred

AccurateRip summary

Track 1 accurately ripped (confidence 2) [1DE6809B] (AR v2)
Track 2 accurately ripped (confidence 2) [9B826D22] (AR v2)
Track 3 accurately ripped (confidence 2) [696F3E8A] (AR v2)
Track 4 accurately ripped (confidence 2) [C1D26550] (AR v2)
Track 5 accurately ripped (confidence 2) [ACEE46CC] (AR v2)
Track 6 accurately ripped (confidence 2) [F287E779] (AR v2)
Track 7 accurately ripped (confidence 2) [36B51C3E] (AR v2)
Track 8 accurately ripped (confidence 2) [56340064] (AR v2)
Track 9 accurately ripped (confidence 2) [BB2BE13F] (AR v2)
Track 10 accurately ripped (confidence 2) [CD816917] (AR v2)
Track 11 accurately ripped (confidence 2) [B7866B62] (AR v2)

All tracks accurately ripped

End of status report

---- CUETools DB Plugin V2.1.6

[CTDB TOCID: Q3rDUo7asltZvZem2vdsvJj5Xd4-] found
Submit result: Q3rDUo7asltZvZem2vdsvJj5Xd4- has been confirmed
Track | CTDB Status
1 | (14/14) Accurately ripped
2 | (14/14) Accurately ripped
3 | (14/14) Accurately ripped
4 | (14/14) Accurately ripped
5 | (14/14) Accurately ripped
6 | (14/14) Accurately ripped
7 | (14/14) Accurately ripped
8 | (14/14) Accurately ripped
9 | (14/14) Accurately ripped
10 | (14/14) Accurately ripped
11 | (14/14) Accurately ripped

==== Log checksum 494F0CEB7C16AED0E6B4F21FA5072E6CF058065F912697E8F6FAA3B8A780CC36 ====
[свернуть]


лог 2 диск

Exact Audio Copy V1.6 from 23. October 2020

EAC extraction logfile from 13. February 2021, 9:33

Various Artists / Various ‎– The World Of Jazz CD 2

Used drive : TSSTcorpCDDVDW SH-216DB Adapter: 1 ID: 0

Read mode : Secure
Utilize accurate stream : Yes
Defeat audio cache : Yes
Make use of C2 pointers : No

Read offset correction : 6
Overread into Lead-In and Lead-Out : No
Fill up missing offset samples with silence : Yes
Delete leading and trailing silent blocks : No
Null samples used in CRC calculations : Yes
Used interface : Native Win32 interface for Win NT & 2000

Used output format : User Defined Encoder
Selected bitrate : 1024 kBit/s
Quality : High
Add ID3 tag : No
Command line compressor : C:\Program Files (x86)\Exact Audio Copy\Flac\flac.exe
Additional command line options : -V -8 -T "Date=%year%" -T "Genre=%genre%" %source%

TOC of the extracted CD

Track | Start | Length | Start sector | End sector
---------------------------------------------------------
1 | 0:00.00 | 7:06.50 | 0 | 31999
2 | 7:06.50 | 3:37.62 | 32000 | 48336
3 | 10:44.37 | 2:51.38 | 48337 | 61199
4 | 13:36.00 | 2:38.00 | 61200 | 73049
5 | 16:14.00 | 4:45.00 | 73050 | 94424
6 | 20:59.00 | 3:27.37 | 94425 | 109986
7 | 24:26.37 | 5:35.38 | 109987 | 135149
8 | 30:02.00 | 2:39.37 | 135150 | 147111
9 | 32:41.37 | 3:10.63 | 147112 | 161424
10 | 35:52.25 | 5:17.12 | 161425 | 185211
11 | 41:09.37 | 3:40.53 | 185212 | 201764

Range status and errors

Selected range

Filename R:\Private\My Audio Ripps\Various Artists - Various ‎– The World Of Jazz CD 2.wav

Peak level 100.0 %
Extraction speed 6.3 X
Range quality 99.9 %
Test CRC 90C65102
Copy CRC 90C65102
Copy OK

No errors occurred

AccurateRip summary

Track 1 accurately ripped (confidence 2) [E55DF0AA] (AR v2)
Track 2 accurately ripped (confidence 2) [02FBD7EC] (AR v2)
Track 3 accurately ripped (confidence 2) [478AFE28] (AR v2)
Track 4 accurately ripped (confidence 2) [2F285CBD] (AR v2)
Track 5 accurately ripped (confidence 2) [A05AC8BF] (AR v2)
Track 6 accurately ripped (confidence 2) [740C5B2E] (AR v2)
Track 7 accurately ripped (confidence 2) [FE4890DD] (AR v2)
Track 8 accurately ripped (confidence 2) [08FEF766] (AR v2)
Track 9 accurately ripped (confidence 2) [84367A76] (AR v2)
Track 10 accurately ripped (confidence 2) [D3C9572B] (AR v2)
Track 11 accurately ripped (confidence 2) [CE58F688] (AR v2)

All tracks accurately ripped

End of status report

---- CUETools DB Plugin V2.1.6

[CTDB TOCID: Y9lT4bidmAfLxUWrIV_tl2SBaCw-] found
Submit result: Y9lT4bidmAfLxUWrIV_tl2SBaCw- has been confirmed
Track | CTDB Status
1 | (14/14) Accurately ripped
2 | (14/14) Accurately ripped
3 | (14/14) Accurately ripped
4 | (14/14) Accurately ripped
5 | (13/14) Accurately ripped
6 | (14/14) Accurately ripped
7 | (14/14) Accurately ripped
8 | (14/14) Accurately ripped
9 | (14/14) Accurately ripped
10 | (14/14) Accurately ripped
11 | (14/14) Accurately ripped

==== Log checksum 8381E5E1290924F521837AD64B338408084E1F3C84C7BFEC9033FE9B05729E16 ====
[свернуть]


Phonographic Copyright (p) – ZYX Music
Copyright (c) – ZYX Music
Glass Mastered At – ZYX Mastering
Published By – Larry Spier Inc.
Published By – Gershwin Publishing Corp.
Published By – American Academy Of Music, Inc.
Published By – Victor Young Publications, Inc.
Published By – Syndicore
Published By – Bernhard Mikulski Publishing
Published By – Chappell & Co. GmbH
Published By – Chappell & Co. Ltd.
Published By – NCA, Inc.
Published By – Mills Music, Inc.
Published By – Jazz Workshop, Inc.
Published By – Famous Music Corporation
Published By – Barton Music Corp.
Published By – Bregman, Vocco & Conn
Published By – EMI Robbins Catalog Inc.
Published By – Chappell & Co., Inc.
Published By – Savoy Music
Published By – Williamson Music, Inc.
Published By – T.B. Harms Company
Published By – E. B. Marks

Made in Germany.

Barcode: 090204450527
Barcode (Text): 0 90204 45052 7
Label Code: LC 6350
Matrix / Runout (CD1): ZYX MASTERING *** ZYX 11002-2 CD1
Matrix / Runout (CD2): ZYX MASTERING *** ZYX 11002-2 CD2
Rights Society: BIEM GEMA
Other (CD1): TT 47.14
Other (CD2): TT 44.42

Дополнительно:
Рип выполнил: alexpika, программой Exact Audio Copy


Скрытый текст
alexpika вне форумаМужчина  
Вверх
Ответ

Навигация
Вернуться   Музыкальный Огонек > Форум > ИНСТРУМЕНТАЛЬНАЯ, ДЖАЗ, БЛЮЗ > Инструменталка, Джаз, Блюз > Джаз, блюз > Сборники

Опции темы

Ваши права в разделе
Вы не можете создавать новые темы
Вы не можете отвечать в темах
Вы не можете прикреплять вложения
Вы не можете редактировать свои сообщения

BB коды Вкл.
Смайлы Вкл.
[IMG] код Вкл.
HTML код Выкл.







Текущее время: 12:56. Часовой пояс GMT +4.

    Для правообладателей -Обратная связь    Главная   Форум    Архив    Вверх 

Internet Map Анекдоты,музыку,рецепты и не только найдете Вы в Беседке Индекс цитирования Яндекс.Метрика

Copyright ©2004 - 2021, Музыкальный огонек - Русский шансон.

Powered by vBulletin® Version 3.8.9
Copyright ©2000 - 2021, vBulletin Solutions, Inc. Перевод: zCarot