Главная Форум Регистрация Поиск Сообщения за день Все разделы прочитаны Календарь Правила форума Наше радио

Вернуться   Музыкальный Огонек > КЛАССИКА, ДЕТСКИЕ, РАДИО > Детские, опера, балет, классика, радио > Классические альбомы и сборники


Улыбнитесь
- Ты где был? Я весь день звонил тебе на сотовый, а он всё "вне зоны доступа".
- А… Я просто телефон ношу завернутым в фольгу, чтобы он своим излучением мне на мозг не действовал!
- Мда… Ну, что сказать… Поздно ты стал телефон в фольгу заворачивать.

Ответ
 
Опции темы
Старый 27.09.2019, 09:15   #1
alexpika
Продвинутый
 
Аватар для alexpika
 
Группа: Участники
Регистрация: 18.11.2010
Последний визит: Сегодня
Сообщений: 1,130
Поблагодарил(а): 1,413
Поблагодарили: 18,648

David D’eor & the Philharmonic - Live Concert (2003) (Lossless)



Исполнитель: David D’eor & the Philharmonic
Альбом: Live Concert
Год выпуска: 2003
Время звучания: 00:49:22
Жанр: Классика
Формат: FLAC (image + cue)
Качество: Lossless
Количество треков: 12
Размер архива: 344 мб
Язык релиза: иврит


Содержание:

01. Amazing Grace - 4.06
02. Agnus Dei - 4.58
03. 20 year old love - 5.09
04. A sound from the sky - 4.25
05. Che Faro Senza Euridic'e - 3.56
06. Imaginary - 3.53
07. I dreamed - 3.49
08. La Scia Ch'io Pianga - 4.19
09. Save the world - 4.28
10. A humble hand - 4.13
11. Let it be - 4.56
12. The Phantom of the Opera - 3.10





Комментарий к релизу:

Выпущен фирмой: ACUN Hed Arzi Music
Каталог №: 64425
Релиз залит на:
yand.Disс

"David D’eor & the Philharmonic - Live Concert" - альбом с записью "живого" концерта Давида Д’Ора, выпущенный израильской фирмой ACUN Hed Arzi Music в 2003 году.
Давид Д’Ор (ивр. ‏דוד ד'אור‏‎) — трижды призёр израильской премии "Певец года" и премии "Лучший вокал". Он также был избран представлять Израиль на Евровидении 2004, где занял 11-е место в полуфинале. К февралю 2008 года девять из его альбомов стали платиновыми.

Давид Д’Ор - Википедия

сканы












[свернуть]


лог

Exact Audio Copy V1.0 beta 3 from 29. August 2011

EAC extraction logfile from 5. September 2019, 13:11

David D'Or / David D'Or and the Philharmonic - LIve Concert

Used drive : TSSTcorpCDDVDW SH-216DB Adapter: 0 ID: 0

Read mode : Secure
Utilize accurate stream : Yes
Defeat audio cache : Yes
Make use of C2 pointers : No

Read offset correction : 6
Overread into Lead-In and Lead-Out : No
Fill up missing offset samples with silence : Yes
Delete leading and trailing silent blocks : No
Null samples used in CRC calculations : Yes
Used interface : Native Win32 interface for Win NT & 2000

Used output format : User Defined Encoder
Selected bitrate : 1024 kBit/s
Quality : High
Add ID3 tag : No
Command line compressor : C:\Program Files (x86)\Exact Audio Copy\Flac\flac.exe
Additional command line options : -V -8 -T "Date=%year%" -T "Genre=%genre%" %source%


TOC of the extracted CD

Track | Start | Length | Start sector | End sector
---------------------------------------------------------
1 | 0:00.00 | 4:05.70 | 0 | 18444
2 | 4:05.70 | 4:57.58 | 18445 | 40777
3 | 9:03.53 | 5:09.21 | 40778 | 63973
4 | 14:12.74 | 4:25.23 | 63974 | 83871
5 | 18:38.22 | 3:55.60 | 83872 | 101556
6 | 22:34.07 | 3:53.34 | 101557 | 119065
7 | 26:27.41 | 3:48.55 | 119066 | 136220
8 | 30:16.21 | 4:19.26 | 136221 | 155671
9 | 34:35.47 | 4:28.30 | 155672 | 175801
10 | 39:04.02 | 4:13.09 | 175802 | 194785
11 | 43:17.11 | 4:55.69 | 194786 | 216979
12 | 48:13.05 | 3:10.11 | 216980 | 231240


Range status and errors

Selected range

Filename R:\Private\My Audio Ripps\David D'Or - David D'Or and the Philharmonic - LIve Concert.wav

Peak level 100.0 %
Extraction speed 2.9 X
Range quality 100.0 %
Test CRC DAE47F28
Copy CRC DAE47F28
Copy OK

No errors occurred


AccurateRip summary

Track 1 cannot be verified as accurate (confidence 2) [7C4F7846], AccurateRip returned [5CC66AA7] (AR v2)
Track 2 cannot be verified as accurate (confidence 2) [6DEE6539], AccurateRip returned [86750534] (AR v2)
Track 3 cannot be verified as accurate (confidence 2) [C9C9D67A], AccurateRip returned [906C4FD9] (AR v2)
Track 4 cannot be verified as accurate (confidence 2) [A150F060], AccurateRip returned [70109856] (AR v2)
Track 5 cannot be verified as accurate (confidence 2) [E4ED42A8], AccurateRip returned [0C490CE3] (AR v2)
Track 6 cannot be verified as accurate (confidence 2) [422441FB], AccurateRip returned [5D14398A] (AR v2)
Track 7 cannot be verified as accurate (confidence 2) [F1E19942], AccurateRip returned [F5378513] (AR v2)
Track 8 cannot be verified as accurate (confidence 2) [5A60FA1C], AccurateRip returned [105579BD] (AR v2)
Track 9 cannot be verified as accurate (confidence 2) [D48F15F3], AccurateRip returned [07739986] (AR v2)
Track 10 cannot be verified as accurate (confidence 2) [F5DCB21A], AccurateRip returned [5AC730AF] (AR v2)
Track 11 cannot be verified as accurate (confidence 2) [B3186CB3], AccurateRip returned [5D1C3A97] (AR v2)
Track 12 cannot be verified as accurate (confidence 2) [2D3F004F], AccurateRip returned [435BC148] (AR v2)

No tracks could be verified as accurate
You may have a different pressing from the one(s) in the database

End of status report

==== Log checksum 517C23FC015E28772C5612847287EF9CA03A4E94A664AE58ED568D4E5C43844D ====
[свернуть]


Дополнительно:
Рип выполнил: alexpika программой Exact Audio Copy


Скрытый текст
alexpika вне форумаМужчина  
Вверх
Ответ

Навигация
Вернуться   Музыкальный Огонек > Форум > КЛАССИКА, ДЕТСКИЕ, РАДИО > Детские, опера, балет, классика, радио > Классические альбомы и сборники

Опции темы

Ваши права в разделе
Вы не можете создавать новые темы
Вы не можете отвечать в темах
Вы не можете прикреплять вложения
Вы не можете редактировать свои сообщения

BB коды Вкл.
Смайлы Вкл.
[IMG] код Вкл.
HTML код Выкл.







Текущее время: 07:25. Часовой пояс GMT +4.

    Для правообладателей -Обратная связь    Главная   Форум    Архив    Вверх 

Internet Map Анекдоты,музыку,рецепты и не только найдете Вы в Беседке Индекс цитирования Яндекс.Метрика

Copyright ©2004 - 2019, Музыкальный огонек - Русский шансон.

Powered by vBulletin® Version 3.8.9
Copyright ©2000 - 2019, vBulletin Solutions, Inc. Перевод: zCarot