Главная Форум Регистрация Поиск Сообщения за день Все разделы прочитаны Календарь Правила форума Наше радио

Вернуться   Музыкальный Огонек > КЛАССИКА, ДЕТСКИЕ, РАДИО > Детские, опера, балет, классика, радио > Классические альбомы и сборники


Улыбнитесь
Чтобы вас не искусали комары - возьмите половинку лимона, бутылку текилы, солоночку соли и не ходите на улицу.

Ответ
 
Опции темы
Старый 26.09.2019, 08:58   #1
alexpika
Продвинутый
 
Аватар для alexpika
 
Группа: Участники
Регистрация: 18.11.2010
Последний визит: Вчера
Сообщений: 1,399
Поблагодарил(а): 1,494
Поблагодарили: 25,625

Rainer Schmidt - ANTONIO VIVALDI (1996) (Lossless)



Исполнитель: Rainer Schmidt, Solovioline und Deutsche Kammervirtuosen
Альбом: ANTONIO VIVALDI - Le Quattro Stagioni - Die vier Jahreszeiten
Год выпуска: 1996
Время звучания: 00:33:18
Жанр: Классика
Формат: FLAC (image + cue)
Качество: Lossless
Количество треков: 12
Размер архива: 160 мб


Содержание:

Concerto No. 1
La primavera - Frühling
1. Allegro
2. Largo
3. Allegro

Concerto No. 2
L' estate -- Sommer
4. Allegro non molto
5. Adagio
6. Presto

Concerto No. 3
L' autunno -- Herbst
7. Allegro
8. Adagio
9. Allegro

Concerto No. 4
L' inverno - Winter
10. El Allegro non molto
11. Largo
12. Allegro


Комментарий к релизу:

Выпущен фирмой: Melisma Musik
Каталог №: MELI 7118-2
Релиз залит на:
yand.Disс


"ANTONIO VIVALDI - Le Quattro Stagioni - Die vier Jahreszeiten" в исполнении Райнера Шмидта - скрипка-соло и оркестра "Deutsche Kammervirtuosen".
"Времена года (итал. Le quattro stagioni" («Четыре времени года») венецианского композитора Антонио Вивальди — первые четыре скрипичных концерта из двенадцати концертов его восьмого опуса, цикла «Спор гармонии с изобретением», одни из самых знаменитых его произведений и одни из известнейших музыкальных произведений в стиле барокко. Концерты написаны в 1723 году и впервые опубликованы два года спустя. На первом исполнении Вивальди лично играл партию скрипки. Каждый концерт посвящён одному времени года, каждый состоит из трёх частей, крайние части являются быстрыми, а средняя медленной, как и в последующих 8 концертах опуса и как в подавляющем большинстве концертов Вивальди, что впоследствии у других композиторов стало характерно для концерта как жанра. (Несмотря на то, что концертов 4, а частей в них традиционно по 3, то есть всего частей 12, из этого не следует полагать, что части каким-либо образом соответствуют 12 месяцам.) Каждому из концертов композитор предпослал сонет — своего рода литературную программу. Предполагается, что автором либретто является сам Вивальди.

"Времена года" (Вивальди) - Википедия

Антонио Лучо (Лучио, (Лючио) Вивальди (итал. Antonio Lucio Vivaldi; 4 марта 1678, Венеция — 28 июля 1741, Вена) — итальянский композитор, скрипач-виртуоз, педагог, дирижёр, католический священник. Вивальди считается одним из крупнейших представителей итальянского скрипичного искусства XVIII века, при жизни получил широкое признание во всей Европе. Мастер ансамблево-оркестрового концерта — кончерто гроссо, автор около 40 опер. Вивальди в основном известен благодаря своим инструментальным концертам, в особенности для скрипки. Одними из наиболее известных его работ являются четыре скрипичных концерта «Времена года», входящие в состав цикла «Спор гармонии с изобретением».

Антонио Вивальди - Википедия

сканы






















[свернуть]



лог


Exact Audio Copy V1.0 beta 3 from 29. August 2011

EAC extraction logfile from 17. September 2019, 21:12

Rainer Schmidt, Deutsche Kammervirtuosen / Die vier Jahrezeiten

Used drive : TSSTcorpCDDVDW SH-216DB Adapter: 0 ID: 0

Read mode : Secure
Utilize accurate stream : Yes
Defeat audio cache : Yes
Make use of C2 pointers : No

Read offset correction : 6
Overread into Lead-In and Lead-Out : No
Fill up missing offset samples with silence : Yes
Delete leading and trailing silent blocks : No
Null samples used in CRC calculations : Yes
Used interface : Native Win32 interface for Win NT & 2000

Used output format : User Defined Encoder
Selected bitrate : 1024 kBit/s
Quality : High
Add ID3 tag : No
Command line compressor : C:\Program Files (x86)\Exact Audio Copy\Flac\flac.exe
Additional command line options : -V -8 -T "Date=%year%" -T "Genre=%genre%" %source%


TOC of the extracted CD

Track | Start | Length | Start sector | End sector
---------------------------------------------------------
1 | 0:00.00 | 3:11.24 | 0 | 14348
2 | 3:11.24 | 1:59.70 | 14349 | 23343
3 | 5:11.19 | 3:43.64 | 23344 | 40132
4 | 8:55.08 | 4:55.48 | 40133 | 62305
5 | 13:50.56 | 1:45.03 | 62306 | 70183
6 | 15:35.59 | 2:22.46 | 70184 | 80879
7 | 17:58.30 | 4:14.58 | 80880 | 99987
8 | 22:13.13 | 2:27.15 | 99988 | 111027
9 | 24:40.28 | 2:56.71 | 111028 | 124298
10 | 27:37.24 | 3:03.54 | 124299 | 138077
11 | 30:41.03 | 1:42.44 | 138078 | 145771
12 | 32:23.47 | 2:52.51 | 145772 | 158722


Range status and errors

Selected range

Filename R:\Private\My Audio Ripps\Rainer Schmidt, Deutsche Kammervirtuosen - Die vier Jahrezeiten.wav

Peak level 100.0 %
Extraction speed 2.6 X
Range quality 100.0 %
Test CRC 164BBBCC
Copy CRC 164BBBCC
Copy OK

No errors occurred


AccurateRip summary

Track 1 accurately ripped (confidence 1) [379F96F4] (AR v1)
Track 2 accurately ripped (confidence 1) [C36ED59A] (AR v1)
Track 3 accurately ripped (confidence 1) [0905DBDC] (AR v1)
Track 4 accurately ripped (confidence 1) [422A3116] (AR v1)
Track 5 accurately ripped (confidence 1) [343C88CE] (AR v1)
Track 6 accurately ripped (confidence 1) [A606E5FE] (AR v1)
Track 7 accurately ripped (confidence 1) [E453B9FE] (AR v1)
Track 8 accurately ripped (confidence 1) [A7B5ABB6] (AR v1)
Track 9 accurately ripped (confidence 1) [C39B4E32] (AR v1)
Track 10 accurately ripped (confidence 1) [A272C5E2] (AR v1)
Track 11 accurately ripped (confidence 1) [5B3870C3] (AR v1)
Track 12 accurately ripped (confidence 1) [AD420B88] (AR v1)

All tracks accurately ripped

End of status report

==== Log checksum B5613DEF1254D5B5BC070C9498CE4687AC2B2AEBB6D7D681A04D6CDBC856EA62 ====
[свернуть]



Deutsche Kammervirtuosen:
Rainer Schmidt, Solovioline; Antonio Pellegrini, Violine; Thomas Hofer, Violine; Julia Mai, Viola; Helmut Menzler, Violoncello; Michinori Bunya, Kontrabass, Fritz Mühlhölzer, Laute

Дополнительно:
Рип выполнил: alexpika программой Exact Audio Copy


Скрытый текст
alexpika вне форумаМужчина  
Вверх
Ответ

Навигация
Вернуться   Музыкальный Огонек > Форум > КЛАССИКА, ДЕТСКИЕ, РАДИО > Детские, опера, балет, классика, радио > Классические альбомы и сборники

Опции темы

Ваши права в разделе
Вы не можете создавать новые темы
Вы не можете отвечать в темах
Вы не можете прикреплять вложения
Вы не можете редактировать свои сообщения

BB коды Вкл.
Смайлы Вкл.
[IMG] код Вкл.
HTML код Выкл.







Текущее время: 10:25. Часовой пояс GMT +4.

    Для правообладателей -Обратная связь    Главная   Форум    Архив    Вверх 

Internet Map Анекдоты,музыку,рецепты и не только найдете Вы в Беседке Индекс цитирования Яндекс.Метрика

Copyright ©2004 - 2020, Музыкальный огонек - Русский шансон.

Powered by vBulletin® Version 3.8.9
Copyright ©2000 - 2020, vBulletin Solutions, Inc. Перевод: zCarot