Главная Форум Регистрация Поиск Сообщения за день Все разделы прочитаны Календарь Правила форума Наше радио

Вернуться   Музыкальный Огонек > КЛАССИКА, ДЕТСКИЕ, РАДИО > Детские, опера, балет, классика, радио > Классические альбомы и сборники


Улыбнитесь
Чтобы вас не искусали комары - возьмите половинку лимона, бутылку текилы, солоночку соли и не ходите на улицу.

Ответ
 
Опции темы
Старый 18.09.2019, 09:34   #1
alexpika
Продвинутый
 
Аватар для alexpika
 
Группа: Участники
Регистрация: 18.11.2010
Последний визит: Сегодня
Сообщений: 1,182
Поблагодарил(а): 1,427
Поблагодарили: 19,578

Igor Stravinsky ‎– Le Sacre Du Printemps / Petruschka (1991) (Lossless)



Сборник: Igor Stravinsky ‎– Le Sacre Du Printemps / Petruschka
Год выпуска: 1991
Время звучания: 01:19:16
Жанр: Классика
Формат: FLAC (image + cue)
Качество: Lossless
Количество треков: 3
Размер архива: 285 мб


Содержание:

Le Sacre Du Printemps 34.43

1. Die Anbetung der Erde/The Adoration of the Earth - 16.37
2. Das Opfer/The Victim - 18.04

Petruschka 34.23

3. Petruschka - 34.23





Комментарий к релизу:

Выпущен фирмой: ZYX Classic
Каталог №: CLS 4136
Релиз залит на:
yand.Disс

"Igor Stravinsky – Le Sacre Du Printemps / Petruschka" - сборник, включающий музыку двух балетов Игоря Стравинского . "Весна священная" и "Петрушка", из коллекции произведений классической музыки, выпущенных немецкой фирмой Bernhard Mikulski Schalplatten Vertiebs Gmbh, дочерней компании лейбла ZYX Classic в 1991 году.
Игорь Фёдорович Стравиинский (17 июня 1882, Ораниенбаум, Российская империя — 6 апреля 1971, Нью-Йорк; похоронен на острове Сан-Микеле, близ Венеции) — русский композитор. Гражданин Франции (1934) и США (1945). Один из крупнейших представителей мировой музыкальной культуры XX века. Музыку Стравинского отличает стилистическое многообразие: в первом периоде творчества (наиболее репертуарные его сочинения) она несёт яркий отпечаток русской культурной традиции. Стилистика позднейших сочинений выдаёт, среди прочего, влияние неоклассицизма и додекафонии Новой венской школы.

Игорь Фёдорович Стравинский - Википедия

«Весна священная» (фр. Le Sacre du printemps) — балет русского композитора Игоря Стравинского, премьера которого состоялась 29 мая 1913 года в театре Елисейских Полей в Париже. Автор декораций, костюмов, либретто — Николай Рерих, хореограф — Вацлав Нижинский, импресарио — Сергей Дягилев.

«Весна священная» -Википедия

Петрушка (русские потешные сцены в четырёх картинах) — балет русского композитора Игоря Федоровича Стравинского, премьера которого состоялась 13 июня 1911 года в программе Русских сезонов на сцене парижского театра Шатле, под управлением Пьера Монтё. Автор либретто - Александр Бенуа с участием Стравинского.[2] Первая редакция 1910―1912, вторая редакция 1948. «Петрушка» — это история одного из традиционных персонажей русских народных кукольных представлений, Петрушки, сделанного из соломы и опилок, в котором тем не менее просыпается жизнь и развиваются эмоции.

"Петрушка" - Википедия

сканы





[свернуть]


лог

Exact Audio Copy V1.0 beta 3 from 29. August 2011

EAC extraction logfile from 6. September 2019, 11:19

Philharmonia Slavonica Cond. Hans Peter Gmuer / Igor Strawinsky -Le Sacre Du Printemps - Petruschka

Used drive : TSSTcorpCDDVDW SH-216DB Adapter: 0 ID: 0

Read mode : Secure
Utilize accurate stream : Yes
Defeat audio cache : Yes
Make use of C2 pointers : No

Read offset correction : 6
Overread into Lead-In and Lead-Out : No
Fill up missing offset samples with silence : Yes
Delete leading and trailing silent blocks : No
Null samples used in CRC calculations : Yes
Used interface : Native Win32 interface for Win NT & 2000

Used output format : User Defined Encoder
Selected bitrate : 1024 kBit/s
Quality : High
Add ID3 tag : No
Command line compressor : C:\Program Files (x86)\Exact Audio Copy\Flac\flac.exe
Additional command line options : -V -8 -T "Date=%year%" -T "Genre=%genre%" %source%


TOC of the extracted CD

Track | Start | Length | Start sector | End sector
---------------------------------------------------------
1 | 0:00.00 | 16:39.40 | 0 | 74964
2 | 16:39.40 | 18:13.60 | 74965 | 156999
3 | 34:53.25 | 34:22.45 | 157000 | 311694


Range status and errors

Selected range

Filename R:\Private\My Audio Ripps\Philharmonia Slavonica Cond. Hans Peter Gmuer - Igor Strawinsky -Le Sacre Du Printemps - Petruschka.wav

Copy aborted

End of status report

==== Log checksum A46F2682B646CF646217ADD0A1D376B4F3A71B75EC28671D3E78E91530A45077 ====

------------------------------------------------------------

Exact Audio Copy V1.0 beta 3 from 29. August 2011

EAC extraction logfile from 6. September 2019, 12:15

Philharmonia Slavonica Cond. Hans Peter Gmuer / Igor Strawinsky -Le Sacre Du Printemps - Petruschka

Used drive : TSSTcorpCDDVDW SH-216DB Adapter: 0 ID: 0

Read mode : Secure
Utilize accurate stream : Yes
Defeat audio cache : Yes
Make use of C2 pointers : No

Read offset correction : 6
Overread into Lead-In and Lead-Out : No
Fill up missing offset samples with silence : Yes
Delete leading and trailing silent blocks : No
Null samples used in CRC calculations : Yes
Used interface : Native Win32 interface for Win NT & 2000

Used output format : User Defined Encoder
Selected bitrate : 1024 kBit/s
Quality : High
Add ID3 tag : No
Command line compressor : C:\Program Files (x86)\Exact Audio Copy\Flac\flac.exe
Additional command line options : -V -8 -T "Date=%year%" -T "Genre=%genre%" %source%


TOC of the extracted CD

Track | Start | Length | Start sector | End sector
---------------------------------------------------------
1 | 0:00.00 | 16:39.40 | 0 | 74964
2 | 16:39.40 | 18:13.60 | 74965 | 156999
3 | 34:53.25 | 34:22.45 | 157000 | 311694


Range status and errors

Selected range

Filename R:\Private\My Audio Ripps\Philharmonia Slavonica Cond. Hans Peter Gmuer - Igor Strawinsky -Le Sacre Du Printemps - Petruschka.wav

Suspicious position 0:01:43

Peak level 85.6 %
Extraction speed 2.9 X
Range quality 99.9 %
Test CRC 51660A30
Copy CRC D570F9D5
Copy finished

There were errors


AccurateRip summary

Track 1 cannot be verified as accurate (confidence 13) [CD25C14E], AccurateRip returned [6DAA4BA2] (AR v2)
Track 2 accurately ripped (confidence 12) [0301965F] (AR v2)
Track 3 accurately ripped (confidence 13) [77E084F6] (AR v2)

2 трек(и) скопированы точно
1 трек(и) не удалось проверить на точность

Some tracks could not be verified as accurate

End of status report

==== Log checksum 2F51ACF7A705C974F697E26E908DE7674EC643D0D278C9AAA17694C1420AB4CA ====
[свернуть]


Phonographic Copyright (p) – Bernhard Mikulski
Copyright (c) – Musikförderung
Marketed By – BERNHARD MIKULSKI Schallplatten-Vertriebs-GmbH
Pressed By – Multi Media Masters

Composed By – Igor Stravinsky
Conductor – Hans Peter Gmür
Design [Cover] – Hess / Borgers
Orchestra – Philharmonia Slavonica
Painting – Gustav Klimt (2)
Photography By [Cover Picture] – Archiv Für Kunst Und Geschichte, Berlin

Total playing time: 69:16

Cover painting : " Die Musik " ( 1895 ) by Gustav Klimt ( 1862 - 1918 )

Made in Germany

Barcode (Text): 090204 01675
Barcode (String): 09020401675
Label Code: LC 7256
SPARS Code: DDD

Дополнительно:
Рип выполнил: alexpika программой Exact Audio Copy


Скрытый текст
alexpika вне форумаМужчина  
Вверх
Ответ

Навигация
Вернуться   Музыкальный Огонек > Форум > КЛАССИКА, ДЕТСКИЕ, РАДИО > Детские, опера, балет, классика, радио > Классические альбомы и сборники

Опции темы

Ваши права в разделе
Вы не можете создавать новые темы
Вы не можете отвечать в темах
Вы не можете прикреплять вложения
Вы не можете редактировать свои сообщения

BB коды Вкл.
Смайлы Вкл.
[IMG] код Вкл.
HTML код Выкл.







Текущее время: 20:58. Часовой пояс GMT +4.

    Для правообладателей -Обратная связь    Главная   Форум    Архив    Вверх 

Internet Map Анекдоты,музыку,рецепты и не только найдете Вы в Беседке Индекс цитирования Яндекс.Метрика

Copyright ©2004 - 2020, Музыкальный огонек - Русский шансон.

Powered by vBulletin® Version 3.8.9
Copyright ©2000 - 2020, vBulletin Solutions, Inc. Перевод: zCarot