Главная Форум Регистрация Поиск Сообщения за день Все разделы прочитаны Календарь Правила форума Наше радио

Вернуться   Музыкальный Огонек > ЗАРУБЕЖНАЯ ШКАТУЛКА > Зарубежные группы и исполнители > Рок > Альбомы


Улыбнитесь
Приятель рассказывал как, перечитывая давеча "Войну и мир", и, наткнувшись на фразу "Пьер Безухов распечатал письмо", минут пять пытался понять: каким образом ему это удалось и где он нашел принтер.

Ответ
 
Опции темы
Старый 12.01.2017, 09:38   #1
alexpika
Долгожитель
 
Аватар для alexpika
 
Группа: Участники
Регистрация: 18.11.2010
Последний визит: Сегодня
Сообщений: 587
Поблагодарил(а): 1,310
Поблагодарили: 7,817

The Monkees ‎– More Greatest Hits

The Monkees

More Greatest Hits



More Greatest Hits of the Monkees - это выпущенный в 1982 году сборник суперхитов Monkees, собранных и опубликованных компанией Arista Records. Вместо того, чтобы снова выпустить старые, проверенные временем хиты, компания вместо этого представила музыку из их телесериала, который все еще транслируется по телевидению в США.


Альбом: More Greatest Hits
Исполнитель: The Monkees
Год выпуска: 1982/1990
Время звучания: 00:27:41
Жанр: Rock & Roll, Pop Rock
Формат: FLAC (tracks)/ MP3 (320) (tracks)
Качество: Lossless
Количество треков: 12
Размер архива: flac - 195 Mb; mp3 (320kbps) - 70 Mb
Язык релиза: английский

Содержание:

1. Take A Giant Step - Written-By – Goffin And King - 2:30
2. Mary, Mary - Written-By – Mike Nesmith - 2:13
3. Sometime In The Morning - Written-By – Goffin And King - 2:24
4. Cuddly Toy - Written-By – Harry Nilsson - 2:38
5. Randy Scouse Git - Written-By – Micky Dolenz - 2:32
6. Words - Written-By – Bobby Hart, Tommy Boyce - 2:46
7. Valleri - Written-By – Bobby Hart, Tommy Boyce - 2:19
8. You Just May Be The One - Written-By – Mike Nesmith - 2:00
9. The Girl I Knew Somewhere - Written-By – Mike Nesmith - 2:32
10. Saturday's Child - Written-By – David Gates - 2:40
11. Look Out (Here Comes Tomorrow) - Written-By – Neil Diamond - 2:12
12. For Pete's Sake (Closing Theme) - Written-By – Joey Richards, Peter Tork - 2:10


сканы

[свернуть]


лог

Exact Audio Copy V1.0 beta 3 from 29. August 2011

EAC extraction logfile from 10. January 2017, 20:32

The Monkees / More Greatest Hits

Used drive : TSSTcorpCDDVDW SH-216DB Adapter: 0 ID: 0

Read mode : Secure
Utilize accurate stream : Yes
Defeat audio cache : Yes
Make use of C2 pointers : No

Read offset correction : 6
Overread into Lead-In and Lead-Out : No
Fill up missing offset samples with silence : Yes
Delete leading and trailing silent blocks : No
Null samples used in CRC calculations : Yes
Used interface : Native Win32 interface for Win NT & 2000

Used output format : User Defined Encoder
Selected bitrate : 1024 kBit/s
Quality : High
Add ID3 tag : No
Command line compressor : C:\Program Files (x86)\Exact Audio Copy\Flac\flac.exe
Additional command line options : -V -8 -T "Date=%year%" -T "Genre=%genre%" %source%


TOC of the extracted CD

Track | Start | Length | Start sector | End sector
---------------------------------------------------------
1 | 0:00.00 | 2:35.07 | 0 | 11631
2 | 2:35.07 | 2:22.68 | 11632 | 22349
3 | 4:58.00 | 2:28.37 | 22350 | 33486
4 | 7:26.37 | 2:41.15 | 33487 | 45576
5 | 10:07.52 | 2:38.00 | 45577 | 57426
6 | 12:45.52 | 2:52.38 | 57427 | 70364
7 | 15:38.15 | 2:18.07 | 70365 | 80721
8 | 17:56.22 | 2:01.35 | 80722 | 89831
9 | 19:57.57 | 2:41.15 | 89832 | 101921
10 | 22:38.72 | 2:46.05 | 101922 | 114376
11 | 25:25.02 | 2:16.00 | 114377 | 124576
12 | 27:41.02 | 2:13.05 | 124577 | 134556


Range status and errors

Selected range

Filename L:\Private\My Audio Ripps\ CD - RIPS\The Monkees - More Greatest Hits Of The Monkees\The Monkees - More Greatest Hits.wav

Peak level 100.0 %
Extraction speed 6.4 X
Range quality 99.9 %
Test CRC F5548AE0
Copy CRC F5548AE0
Copy OK

No errors occurred


AccurateRip summary

Track 1 not present in database
Track 2 not present in database
Track 3 not present in database
Track 4 not present in database
Track 5 not present in database
Track 6 not present in database
Track 7 not present in database
Track 8 not present in database
Track 9 not present in database
Track 10 not present in database
Track 11 not present in database
Track 12 not present in database

None of the tracks are present in the AccurateRip database

End of status report

==== Log checksum D63C11E84DF17E347D4D183C4ACC9E951F750E8DED01E62A9E4BD84FD52075D6 ====
[свернуть]



Remastered At – K Disc Mastering

Producer – Boyce & Hart (tracks: 1, 7, 10), Chip Douglas (tracks: 4, 5, 6, 8, 9, 12), Goffin And King (tracks: 3), Jack Keller (tracks: 10), Jeff Barry (tracks: 3, 11), Michael Nesmith (tracks: 2)
Remastered By – Bill Inglot, Ken Perry

Barcode: 07822183342

Рип - мой



Страна: США
Издатель (лейбл): Arista ‎– ARCD-8334
Формат: FLAC / MP3 (320)
Параметры: CD, Compilation, Remastered, Rip, image, log, cue
Источник: копия СД из собственной коллекции


Скрытый текст
alexpika вне форумаМужчина  
Вверх
Ответ

Навигация
Вернуться   Музыкальный Огонек > Форум > ЗАРУБЕЖНАЯ ШКАТУЛКА > Зарубежные группы и исполнители > Рок > Альбомы

Опции темы

Ваши права в разделе
Вы не можете создавать новые темы
Вы не можете отвечать в темах
Вы не можете прикреплять вложения
Вы не можете редактировать свои сообщения

BB коды Вкл.
Смайлы Вкл.
[IMG] код Вкл.
HTML код Выкл.







Текущее время: 15:40. Часовой пояс GMT +4.

    Для правообладателей -Обратная связь    Главная   Форум    Архив    Вверх 

Internet Map Анекдоты,музыку,рецепты и не только найдете Вы в Беседке Индекс цитирования Яндекс.Метрика

Copyright ©2004 - 2017, Музыкальный огонек - Русский шансон.

Powered by vBulletin® Version 3.8.9
Copyright ©2000 - 2017, vBulletin Solutions, Inc. Перевод: zCarot