Главная Форум Регистрация Поиск Сообщения за день Все разделы прочитаны Календарь Правила форума Наше радио

Вернуться   Музыкальный Огонек > ЗАРУБЕЖНАЯ ШКАТУЛКА > Народные песни и мотивы Америки > Латино


Улыбнитесь
Еда – это лучшее удовольствие, которое можно получить, не снимая штаны.

Ответ
 
Опции темы
Старый 16.02.2017, 10:50   #1
alexpika
Долгожитель
 
Аватар для alexpika
 
Группа: Участники
Регистрация: 18.11.2010
Последний визит: Сегодня
Сообщений: 744
Поблагодарил(а): 1,336
Поблагодарили: 9,710

Jose Feliciano - Selection Of Jose Feliciano

Jose Feliciano

Selection Of Jose Feliciano



Хосе Монтсеррат Фелисиано Гарсия (исп. José Montserrate Feliciano García; род. 10 сентября 1945, Ларес, Пуэрто-Рико) — пуэрториканский музыкант, гитарист-виртуоз, композитор и певец.
Хосе Фелисиано в результате наследственного заболевания родился слепым; был одним из 11 детей в семье. Когда мальчику исполнилось пять лет, он со своими родителями и братьями переезжает в Гарлем (Нью-Йорк). В девятилетнем возрасте Хосе играет в Teatro Puerto Rico. Выучившись игре на различных музыкальных инструментах, в том числе на аккордеоне, он всем им предпочитает гитару. Чтобы достичь большего мастерства, он запирается в своей комнате и до 14 часов в день слушает и импровизирует под рок-музыку 1950-х годов. В 17 лет юноша бросает школу и начинает выступать по нью-йоркским клубам, чтобы заработать денег для семьи. В том же 1962 году он заключает свой первый договор на гастроли в Детройте....(и далее в Википедии)

Jose Feliciano - Википедия


Альбом: Selection Of Jose Feliciano
Исполнитель: Jose Feliciano
Год выпуска: 1995
Время звучания: CD 1 - 00:47:18 CD 2 - 00:51:14
Жанр: Pop, Folk-Pop
Формат: FLAC (tracks)/ MP3 (320) (tracks)
Качество: Lossless
Количество треков: 24
Размер архива: CD 1 flac - 253 Mb; mp3 (320kbps) - 113 Mb; CD 2 flac - 281 Mb; mp3 (320kbps) - 122 Mb
Язык релиза: английский, испанский

Содержание:

Disc: 1
1. Light My Fire - The Doors) - 3:07
2. La Bamba - (R.Valens) - 2:56
3. In My Life - (J-Lennon/P.McCartney) - 3:20
4. Che Sera Sera - (E.Sbriccola/C.Pes/F.Migliacci) - 4:07
5. Malaguena - (Ramirez) - 4:51
6. Daniel - (E.John/B.Taupin) - 3.52
7. You Send Me - (S.Cooke) - 4:06
8. California Dreamin' - (J.Phillips/M.Phillips) - 4:00
9. Hi Heel Sneakers - (R.Higgenbotham) - 4:34
10. Time After Time - (S.Cahn/J.Styne) - 3:17
11. Jealous Guy - (J.Lennon) - 4:50
12. Samba Pa Ti - (C.Santana) - 3:49

Disc: 2
1. Bamboleo - (Baliardo) - 6:45
2. Angela - (J.Feliciano/J.Feliciano) - 3:40
3. Stay With Me - (J.Feliciano/J.Feliciano) - 4:51
4. Pegao - (J.Feliciano) - 2:38
5. Affirmation - (J.Feliciano) - 4:51
6. Rain - (J.Feliciano/J.Feliciano) - 2:39
7. (Theme From) Chico And The Man - (J.Feliciano) - 3:01
8. Y Volvere - (A. Barriere/Lopez de la Fuenta) - 4:06
9. The Last Time - (M. Jagger/K.Richards) - 3:51
10. Right Here Waiting - (R.Marx/B.Gaitsch) - 4:24
11. Mule Skinner Blues - (J.Rogers/G.Vaughan) - 2:41
12. La Entrada De Bilbao - (J.Feliciano) - 7:17


сканы

[свернуть]


лог

СД 1 ЛогExact Audio Copy V1.0 beta 3 from 29. August 2011

EAC extraction logfile from 15. February 2017, 7:34

Jose Feliciano / Selection Of Jose Feliciano (CD1)

Used drive : TSSTcorpCDDVDW SH-216DB Adapter: 0 ID: 0

Read mode : Secure
Utilize accurate stream : Yes
Defeat audio cache : Yes
Make use of C2 pointers : No

Read offset correction : 6
Overread into Lead-In and Lead-Out : No
Fill up missing offset samples with silence : Yes
Delete leading and trailing silent blocks : No
Null samples used in CRC calculations : Yes
Used interface : Native Win32 interface for Win NT & 2000

Used output format : User Defined Encoder
Selected bitrate : 1024 kBit/s
Quality : High
Add ID3 tag : No
Command line compressor : C:\Program Files (x86)\Exact Audio Copy\Flac\flac.exe
Additional command line options : -V -8 -T "Date=%year%" -T "Genre=%genre%" %source%


TOC of the extracted CD

Track | Start | Length | Start sector | End sector
---------------------------------------------------------
1 | 0:00.32 | 3:10.20 | 32 | 14301
2 | 3:10.52 | 2:58.50 | 14302 | 27701
3 | 6:09.27 | 3:22.58 | 27702 | 42909
4 | 9:32.10 | 4:10.22 | 42910 | 61681
5 | 13:42.32 | 4:53.33 | 61682 | 83689
6 | 18:35.65 | 3:54.42 | 83690 | 101281
7 | 22:30.32 | 4:07.70 | 101282 | 119876
8 | 26:38.27 | 4:01.45 | 119877 | 137996
9 | 30:39.72 | 4:35.70 | 137997 | 158691
10 | 35:15.67 | 3:20.00 | 158692 | 173691
11 | 38:35.67 | 4:53.40 | 173692 | 195706
12 | 43:29.32 | 3:49.00 | 195707 | 212881


Range status and errors

Selected range

Filename L:\Private\My Audio Ripps\ CD - RIPS\Jose Feliciano - Selection Of\CD 1\Jose Feliciano - Selection Of Jose Feliciano (CD1).wav

Peak level 91.8 %
Extraction speed 2.4 X
Range quality 100.0 %
Test CRC 48829257
Copy CRC 48829257
Copy OK

No errors occurred


AccurateRip summary

Track 1 cannot be verified as accurate (confidence 3) [2517D931], AccurateRip returned [F1D24512] (AR v2)
Track 2 cannot be verified as accurate (confidence 3) [BBBAC51F], AccurateRip returned [7EBCCAF3] (AR v2)
Track 3 cannot be verified as accurate (confidence 3) [90D9C403], AccurateRip returned [657C9F9E] (AR v2)
Track 4 cannot be verified as accurate (confidence 3) [AAAC9473], AccurateRip returned [66BC75DA] (AR v2)
Track 5 cannot be verified as accurate (confidence 3) [D72A3B81], AccurateRip returned [68A562E8] (AR v2)
Track 6 cannot be verified as accurate (confidence 3) [9D2B5F2A], AccurateRip returned [9891EEF5] (AR v2)
Track 7 cannot be verified as accurate (confidence 3) [5735EDF2], AccurateRip returned [C7C7FD6F] (AR v2)
Track 8 cannot be verified as accurate (confidence 3) [2AFA21FC], AccurateRip returned [60575552] (AR v2)
Track 9 cannot be verified as accurate (confidence 3) [196D51CE], AccurateRip returned [4FEC1026] (AR v2)
Track 10 cannot be verified as accurate (confidence 3) [05F5526D], AccurateRip returned [CD046BFE] (AR v2)
Track 11 cannot be verified as accurate (confidence 3) [9B4172E3], AccurateRip returned [6505AFAE] (AR v2)
Track 12 cannot be verified as accurate (confidence 3) [BF4F5D21], AccurateRip returned [7A05F693] (AR v2)

No tracks could be verified as accurate
You may have a different pressing from the one(s) in the database

End of status report

==== Log checksum 19BD88292B39C81F37EAB3979C4071018370EE690D251DDAAB526A3CE08B6271 ====

СД 2 ЛогExact Audio Copy V1.0 beta 3 from 29. August 2011

EAC extraction logfile from 15. February 2017, 14:04

Jose Feliciano / Selection of Jose Feliciano - CD 2

Used drive : TSSTcorpCDDVDW SH-216DB Adapter: 0 ID: 0

Read mode : Secure
Utilize accurate stream : Yes
Defeat audio cache : Yes
Make use of C2 pointers : No

Read offset correction : 6
Overread into Lead-In and Lead-Out : No
Fill up missing offset samples with silence : Yes
Delete leading and trailing silent blocks : No
Null samples used in CRC calculations : Yes
Used interface : Native Win32 interface for Win NT & 2000

Used output format : User Defined Encoder
Selected bitrate : 1024 kBit/s
Quality : High
Add ID3 tag : No
Command line compressor : C:\Program Files (x86)\Exact Audio Copy\Flac\flac.exe
Additional command line options : -V -8 -T "Date=%year%" -T "Genre=%genre%" %source%


TOC of the extracted CD

Track | Start | Length | Start sector | End sector
---------------------------------------------------------
1 | 0:00.32 | 6:49.28 | 32 | 30734
2 | 6:49.60 | 3:42.27 | 30735 | 47411
3 | 10:32.12 | 4:53.58 | 47412 | 69444
4 | 15:25.70 | 2:40.02 | 69445 | 81446
5 | 18:05.72 | 4:54.00 | 81447 | 103496
6 | 22:59.72 | 2:40.30 | 103497 | 115526
7 | 25:40.27 | 3:04.58 | 115527 | 129384
8 | 28:45.10 | 4:09.32 | 129385 | 148091
9 | 32:54.42 | 3:52.53 | 148092 | 165544
10 | 36:47.20 | 4:26.72 | 165545 | 185566
11 | 41:14.17 | 2:45.00 | 185567 | 197941
12 | 43:59.17 | 7:15.40 | 197942 | 230606


Range status and errors

Selected range

Filename L:\Private\My Audio Ripps\ CD - RIPS\Jose Feliciano - Selection Of\CD 2\Jose Feliciano - Selection of Jose Feliciano - CD 2.wav

Peak level 91.3 %
Extraction speed 2.4 X
Range quality 100.0 %
Test CRC D0BA45F9
Copy CRC D0BA45F9
Copy OK

No errors occurred


AccurateRip summary

Track 1 accurately ripped (confidence 4) [D537539E] (AR v2)
Track 2 accurately ripped (confidence 4) [223A3646] (AR v2)
Track 3 accurately ripped (confidence 4) [95EE999C] (AR v2)
Track 4 accurately ripped (confidence 4) [55DCA28B] (AR v2)
Track 5 accurately ripped (confidence 4) [F76548ED] (AR v2)
Track 6 accurately ripped (confidence 4) [67AE51A3] (AR v2)
Track 7 accurately ripped (confidence 4) [8DCB10E8] (AR v2)
Track 8 accurately ripped (confidence 4) [6DE04372] (AR v2)
Track 9 accurately ripped (confidence 4) [8ACDB142] (AR v2)
Track 10 accurately ripped (confidence 4) [7BFEA364] (AR v2)
Track 11 accurately ripped (confidence 4) [4D5A582B] (AR v2)
Track 12 accurately ripped (confidence 4) [F6ED4A7C] (AR v2)

All tracks accurately ripped

End of status report

==== Log checksum CFBD1D34EFAE98FA459C910B187A5BEBF6C62B8977F155E9F4EFD9C4CD5D871F ====
[свернуть]



Рип - мой



Страна: ?????
Издатель (лейбл): Gold Sound / 443/444 DCD 753, Serie DE LUXE
Формат: FLAC / MP3 (320)
Параметры: 2 × CD, Compilation, Reissue, Rip, image, log, cue
Источник: СД-бокс из собственной коллекции


Скрытый текст
alexpika вне форумаМужчина  
Вверх
Ответ

Навигация
Вернуться   Музыкальный Огонек > Форум > ЗАРУБЕЖНАЯ ШКАТУЛКА > Народные песни и мотивы Америки > Латино

Опции темы

Ваши права в разделе
Вы не можете создавать новые темы
Вы не можете отвечать в темах
Вы не можете прикреплять вложения
Вы не можете редактировать свои сообщения

BB коды Вкл.
Смайлы Вкл.
[IMG] код Вкл.
HTML код Выкл.







Текущее время: 14:04. Часовой пояс GMT +4.

    Для правообладателей -Обратная связь    Главная   Форум    Архив    Вверх 

Internet Map Анекдоты,музыку,рецепты и не только найдете Вы в Беседке Индекс цитирования Яндекс.Метрика

Copyright ©2004 - 2017, Музыкальный огонек - Русский шансон.

Powered by vBulletin® Version 3.8.9
Copyright ©2000 - 2017, vBulletin Solutions, Inc. Перевод: zCarot