Главная Форум Регистрация Поиск Сообщения за день Все разделы прочитаны Календарь Правила форума Наше радио

Вернуться   Музыкальный Огонек > ИНСТРУМЕНТАЛЬНАЯ, ДЖАЗ, БЛЮЗ > Инструменталка, Джаз, Блюз > Джаз, блюз > Альбомы


Улыбнитесь
- Ты где был? Я весь день звонил тебе на сотовый, а он всё "вне зоны доступа".
- А… Я просто телефон ношу завернутым в фольгу, чтобы он своим излучением мне на мозг не действовал!
- Мда… Ну, что сказать… Поздно ты стал телефон в фольгу заворачивать.

Ответ
 
Опции темы
Старый 21.03.2017, 08:24   #1
alexpika
Долгожитель
 
Аватар для alexpika
 
Группа: Участники
Регистрация: 18.11.2010
Последний визит: Вчера
Сообщений: 557
Поблагодарил(а): 1,308
Поблагодарили: 7,221

John Lee Hooker ‎– Boogie Man

John Lee Hooker

Boogie Man



Сборник записей 1948 - 1966 г.г.

Джон Ли Хукер (англ. John Lee Hooker; 22 августа 1917, Коэхома, Миссисипи, США — 21 июня 2001, Лос-Альтос, Калифорния) — американский блюзовый певец, гитарист. Его творчество оказало существенное влияние на развитие поп-музыки второй половины XX века, блюза в особенности. Многократный лауреат премий «Грэмми». Песни Джона Ли Хукера игрались во многих фильмах и компьютерных играх. Одна из компьютерных игр — «Mafia 2» — использовала его хит «Boom Boom». В игре «GTA vice city» по Хукеру был сделан один вид прохожих. Его лучшими друзьями были Карлос Сантана, Бонни Райт, Ван Моррисон, группа «Los lobos».

John Lee Hooker - Википедия


Альбом: Boogie Man
Исполнитель: John Lee Hooker
Год выпуска: 1994
Время звучания: 00:53:03
Жанр: Blues
Формат: FLAC (tracks)/ MP3 (320) (tracks)
Качество: Lossless
Количество треков: 18
Размер архива: flac - 264 Mb; mp3 (320kbps) - 127 Mb
Язык релиза: английский

Содержание:

1 Boom Boom 2:31
2 Crawlin' King Snake 2:42
3 Boogie Chillun 2:34
4 I'm In The Mood 2:43
5 Leave My Wife Alone 2:47
6 Time Is Marching 3:03
7 One Bourbon, One Scotch, One Beer 2:56
8 Ground Hog Blues 2:57
9 Dimples 2:13
10 Walkin' The Boogie 2:43
11 Hobo Blues 2:48
12 It Serves Me Right To Suffer 3:30
13 High Priced Woman 2:43
14 The Waterfront 5:19
15 This Is Hip 2:28
16 Goin' Mad Blues 3:37
17 Wandering Blues 2:52
18 House Rent Boogie 2:37


сканы


[свернуть]



Скрытый текст

Exact Audio Copy V1.0 beta 3 from 29. August 2011

EAC extraction logfile from 18. March 2017, 16:19

John Lee Hooker / Boogie Man

Used drive : TSSTcorpCDDVDW SH-216DB Adapter: 0 ID: 0

Read mode : Secure
Utilize accurate stream : Yes
Defeat audio cache : Yes
Make use of C2 pointers : No

Read offset correction : 6
Overread into Lead-In and Lead-Out : No
Fill up missing offset samples with silence : Yes
Delete leading and trailing silent blocks : No
Null samples used in CRC calculations : Yes
Used interface : Native Win32 interface for Win NT & 2000

Used output format : User Defined Encoder
Selected bitrate : 1024 kBit/s
Quality : High
Add ID3 tag : No
Command line compressor : C:\Program Files (x86)\Exact Audio Copy\Flac\flac.exe
Additional command line options : -V -8 -T "Date=%year%" -T "Genre=%genre%" %source%


TOC of the extracted CD

Track | Start | Length | Start sector | End sector
---------------------------------------------------------
1 | 0:00.33 | 2:31.37 | 33 | 11394
2 | 2:31.70 | 2:45.50 | 11395 | 23819
3 | 5:17.45 | 2:36.28 | 23820 | 35547
4 | 7:53.73 | 2:43.72 | 35548 | 47844
5 | 10:37.70 | 2:48.18 | 47845 | 60462
6 | 13:26.13 | 3:02.37 | 60463 | 74149
7 | 16:28.50 | 2:56.10 | 74150 | 87359
8 | 19:24.60 | 2:58.40 | 87360 | 100749
9 | 22:23.25 | 2:11.70 | 100750 | 110644
10 | 24:35.20 | 2:43.28 | 110645 | 122897
11 | 27:18.48 | 2:48.25 | 122898 | 135522
12 | 30:06.73 | 3:31.62 | 135523 | 151409
13 | 33:38.60 | 2:44.33 | 151410 | 163742
14 | 36:23.18 | 5:11.35 | 163743 | 187102
15 | 41:34.53 | 2:30.57 | 187103 | 198409
16 | 44:05.35 | 3:47.58 | 198410 | 215492
17 | 47:53.18 | 2:59.60 | 215493 | 228977
18 | 50:53.03 | 2:45.40 | 228978 | 241392


Range status and errors

Selected range

Filename L:\Private\My Audio Ripps\ CD - RIPS\John Lee Hooker - Boogie Man\John Lee Hooker - Boogie Man.wav

Peak level 100.0 %
Extraction speed 2.4 X
Range quality 100.0 %
Test CRC 166D4926
Copy CRC 166D4926
Copy OK

No errors occurred


AccurateRip summary

Track 1 accurately ripped (confidence 18) [1ECE257A] (AR v2)
Track 2 accurately ripped (confidence 18) [F88603C6] (AR v2)
Track 3 accurately ripped (confidence 18) [8F4CD43E] (AR v2)
Track 4 accurately ripped (confidence 18) [7719955B] (AR v2)
Track 5 accurately ripped (confidence 18) [BDE26AC3] (AR v2)
Track 6 accurately ripped (confidence 18) [84939006] (AR v2)
Track 7 accurately ripped (confidence 18) [021C8B90] (AR v2)
Track 8 accurately ripped (confidence 18) [6ABFC88A] (AR v2)
Track 9 accurately ripped (confidence 18) [0DC7FF56] (AR v2)
Track 10 accurately ripped (confidence 18) [ED67B240] (AR v2)
Track 11 accurately ripped (confidence 18) [C4461D0E] (AR v2)
Track 12 accurately ripped (confidence 18) [132B6DB3] (AR v2)
Track 13 accurately ripped (confidence 18) [AC3A0553] (AR v2)
Track 14 accurately ripped (confidence 18) [9838F51C] (AR v2)
Track 15 accurately ripped (confidence 18) [B1571266] (AR v2)
Track 16 accurately ripped (confidence 18) [80DC3F12] (AR v2)
Track 17 accurately ripped (confidence 18) [3EBE6AE5] (AR v2)
Track 18 accurately ripped (confidence 18) [A030A741] (AR v2)

All tracks accurately ripped

End of status report

==== Log checksum 83BF98E3212D5AA2989BE34B423609AF67B2CD46D3A1DFEF36F973E4E6F16DC1 ====
[свернуть]




Phonographic Copyright (p) – Charly International Aps
Licensed From – Charly International Aps
Copyright (c) – Orbis Publishing Ltd.
Pressed By – MPO

Written-By – Milburn* (tracks: 7), Hooker* (tracks: 1 to 6, 8 to 18)

[On disc:]
Hergestellt in der EU
℗ Unter Lizenz von Charly Inernational Aps.
© 1994 Orbis Publishing Ltd.
Aufgenommen zwischen 1948-66.

Matrix / Runout (Variant 1): BLUNC 001 MPO 01 @@
Matrix / Runout (Variant 2): BLUNC 001 MPO 02 @@

Рип - мой



Страна: Germany
Издатель (лейбл): Orbis ‎– BLU NC 001 Serie: The Blues Collection – 1
Формат: FLAC / MP3 (320)
Параметры: CD, Compilation, Rip, image, log, cue
Источник: СД из собственной коллекции


Скрытый текст
alexpika вне форумаМужчина  
Вверх
Ответ

Навигация
Вернуться   Музыкальный Огонек > Форум > ИНСТРУМЕНТАЛЬНАЯ, ДЖАЗ, БЛЮЗ > Инструменталка, Джаз, Блюз > Джаз, блюз > Альбомы

Опции темы

Ваши права в разделе
Вы не можете создавать новые темы
Вы не можете отвечать в темах
Вы не можете прикреплять вложения
Вы не можете редактировать свои сообщения

BB коды Вкл.
Смайлы Вкл.
[IMG] код Вкл.
HTML код Выкл.







Текущее время: 04:07. Часовой пояс GMT +4.

    Для правообладателей -Обратная связь    Главная   Форум    Архив    Вверх 

Internet Map Анекдоты,музыку,рецепты и не только найдете Вы в Беседке Индекс цитирования Яндекс.Метрика

Copyright ©2004 - 2017, Музыкальный огонек - Русский шансон.

Powered by vBulletin® Version 3.8.9
Copyright ©2000 - 2017, vBulletin Solutions, Inc. Перевод: zCarot