Главная Форум Регистрация Поиск Сообщения за день Все разделы прочитаны Календарь Правила форума Наше радио

Вернуться   Музыкальный Огонек > ЗАРУБЕЖНАЯ ШКАТУЛКА > Зарубежные группы и исполнители > Рок > Альбомы


Улыбнитесь
- Ты где был? Я весь день звонил тебе на сотовый, а он всё "вне зоны доступа".
- А… Я просто телефон ношу завернутым в фольгу, чтобы он своим излучением мне на мозг не действовал!
- Мда… Ну, что сказать… Поздно ты стал телефон в фольгу заворачивать.

Ответ
 
Опции темы
Старый 15.03.2017, 12:07   #1
alexpika
Продвинутый
 
Аватар для alexpika
 
Группа: Участники
Регистрация: 18.11.2010
Последний визит: Сегодня
Сообщений: 1,105
Поблагодарил(а): 1,401
Поблагодарили: 17,822

Marc Bolan & T. Rex ‎– The 16 Greatest Hits

Marc Bolan & T. Rex

The 16 Greatest Hits



T. Rex — британская рок-группа, основанная в 1967 году в Лондоне под названием Tyrannosaurus Rex как акустический фолк-роковый дуэт Марка Болана и Стива Перегрина Тука. Являлись одними из ярчайших представителей «Британского Андеграунда». В 1969 название было сокращено до T. Rex; добившись большого успеха в британских чартах начала 1970-х годов, группа стала одной из ведущих в глэм-рок-движении и просуществовала до смерти Болана в 1977 году.

T.Rex - Википедия


Альбом: The 16 Greatest Hits
Исполнитель: Marc Bolan & T. Rex
Год выпуска: 1993
Время звучания: 00:50:17
Жанр: Folk rock, underground
Формат: FLAC (tracks)/ MP3 (320) (tracks)
Качество: Lossless
Количество треков: 16
Размер архива: flac - 336 Mb; mp3 (320kbps) - 120 Mb
Язык релиза: английский

Содержание:

1 Telegram Sam 3:47
2 Metal Guru 2:28
3 Solid Gold, Easy Action 2:22
4 20th Century Boy 3:40
5 Teenage Dream 5:48
6 Light Of Love 3:14
7 New York City 3:58
8 London Boys 2:22
9 I Love To Boogie 2:13
10 Laser Love 3:36
11 Lady 2:13
12 Born To Boogie 2:06
13 Dandy In The Underworld 4:35
14 Life's An Elevator 2:26
15 All Alone 2:49
16 Celebrate Summer 2:34


сканы

[свернуть]



лог

Exact Audio Copy V1.0 beta 3 from 29. August 2011

EAC extraction logfile from 13. March 2017, 9:07

Marc Bolan and T. Rex / The 16 Greatest Hits

Used drive : TSSTcorpCDDVDW SH-216DB Adapter: 0 ID: 0

Read mode : Secure
Utilize accurate stream : Yes
Defeat audio cache : Yes
Make use of C2 pointers : No

Read offset correction : 6
Overread into Lead-In and Lead-Out : No
Fill up missing offset samples with silence : Yes
Delete leading and trailing silent blocks : No
Null samples used in CRC calculations : Yes
Used interface : Native Win32 interface for Win NT & 2000

Used output format : User Defined Encoder
Selected bitrate : 1024 kBit/s
Quality : High
Add ID3 tag : No
Command line compressor : C:\Program Files (x86)\Exact Audio Copy\Flac\flac.exe
Additional command line options : -V -8 -T "Date=%year%" -T "Genre=%genre%" %source%


TOC of the extracted CD

Track | Start | Length | Start sector | End sector
---------------------------------------------------------
1 | 0:00.33 | 3:47.02 | 33 | 17059
2 | 3:47.35 | 2:28.48 | 17060 | 28207
3 | 6:16.08 | 2:22.15 | 28208 | 38872
4 | 8:38.23 | 3:40.52 | 38873 | 55424
5 | 12:19.00 | 5:48.73 | 55425 | 81597
6 | 18:07.73 | 3:14.67 | 81598 | 96214
7 | 21:22.65 | 3:58.05 | 96215 | 114069
8 | 25:20.70 | 2:22.15 | 114070 | 124734
9 | 27:43.10 | 2:13.38 | 124735 | 134747
10 | 29:56.48 | 3:36.10 | 134748 | 150957
11 | 33:32.58 | 2:13.45 | 150958 | 160977
12 | 35:46.28 | 2:06.17 | 160978 | 170444
13 | 37:52.45 | 4:35.18 | 170445 | 191087
14 | 42:27.63 | 2:26.25 | 191088 | 202062
15 | 44:54.13 | 2:49.37 | 202063 | 214774
16 | 47:43.50 | 2:34.25 | 214775 | 226349


Range status and errors

Selected range

Filename L:\Private\My Audio Ripps\ CD - RIPS\Marc Bolan & T.Rex - The 16 Greatest Hits\Marc Bolan and T. Rex - The 16 Greatest Hits.wav

Peak level 100.0 %
Extraction speed 2.1 X
Range quality 100.0 %
Test CRC 2D632A47
Copy CRC 2D632A47
Copy OK

No errors occurred


AccurateRip summary

Track 1 accurately ripped (confidence 18) [B0E0975D] (AR v2)
Track 2 accurately ripped (confidence 20) [08B07560] (AR v2)
Track 3 accurately ripped (confidence 20) [D5E32134] (AR v2)
Track 4 accurately ripped (confidence 19) [F0C2C0A8] (AR v2)
Track 5 accurately ripped (confidence 19) [2969D1A5] (AR v2)
Track 6 accurately ripped (confidence 19) [26FA3AFC] (AR v2)
Track 7 accurately ripped (confidence 18) [53A357AA] (AR v2)
Track 8 accurately ripped (confidence 19) [1FCAB3C1] (AR v2)
Track 9 accurately ripped (confidence 20) [1B82569A] (AR v2)
Track 10 accurately ripped (confidence 18) [44E98817] (AR v2)
Track 11 accurately ripped (confidence 19) [83536EC4] (AR v2)
Track 12 accurately ripped (confidence 18) [4E2095C0] (AR v2)
Track 13 accurately ripped (confidence 18) [B0817251] (AR v2)
Track 14 accurately ripped (confidence 19) [71E9E832] (AR v2)
Track 15 accurately ripped (confidence 19) [2B937A0C] (AR v2)
Track 16 accurately ripped (confidence 19) [BCA5ABA1] (AR v2)

All tracks accurately ripped

End of status report

==== Log checksum F42A0AD95F8B2569706265C73DD62D5C130BB6E3E79A041726EF21EB82F93814 ====
[свернуть]



Distributed By – Selected Sound Carrier AG
Published By – Wizard Publishing Ltd.

Composed By – Marc Bolan

All titles published by Wizard Publishing.
Made in E.E.C.

Distributed by: Selected Sound Carrier AG, Kosthausstrasse 6-8, 6010 Kriens/Switzerland

Jewel Case with single page insert.

Matrix / Runout: 105.1067-2 4 1 2 2 3 4 6
Rights Society: SUISA
Other (SPARS Code): AAD

Рип - мой



Страна: Germany, Austria, & Switzerland
Издатель (лейбл): Soundwings ‎– 105.1067-2
Формат: FLAC / MP3 (320)
Параметры: CD, Compilation, Rip, image, log, cue
Источник: СД из собственной коллекции


Скрытый текст
alexpika вне форумаМужчина  
Вверх
Старый 11.06.2018, 10:13   #2
cesar100
Новичок
 
Аватар для cesar100
 
Группа: Участники
Регистрация: 27.08.2016
Последний визит: 12.06.2018
Сообщений: 3
Поблагодарил(а): 23
Поблагодарили: 0

thanks

for sharing
cesar100 вне форумаМужчина  
Вверх
Ответ

Навигация
Вернуться   Музыкальный Огонек > Форум > ЗАРУБЕЖНАЯ ШКАТУЛКА > Зарубежные группы и исполнители > Рок > Альбомы

Опции темы

Ваши права в разделе
Вы не можете создавать новые темы
Вы не можете отвечать в темах
Вы не можете прикреплять вложения
Вы не можете редактировать свои сообщения

BB коды Вкл.
Смайлы Вкл.
[IMG] код Вкл.
HTML код Выкл.







Текущее время: 11:18. Часовой пояс GMT +4.

    Для правообладателей -Обратная связь    Главная   Форум    Архив    Вверх 

Internet Map Анекдоты,музыку,рецепты и не только найдете Вы в Беседке Индекс цитирования Яндекс.Метрика

Copyright ©2004 - 2019, Музыкальный огонек - Русский шансон.

Powered by vBulletin® Version 3.8.9
Copyright ©2000 - 2019, vBulletin Solutions, Inc. Перевод: zCarot