Главная Форум Регистрация Поиск Сообщения за день Все разделы прочитаны Календарь Правила форума Наше радио

Вернуться   Музыкальный Огонек > ИНСТРУМЕНТАЛЬНАЯ, ДЖАЗ, БЛЮЗ > Инструменталка, Джаз, Блюз > Дискографии > Louis Armstrong


Улыбнитесь
Еда – это лучшее удовольствие, которое можно получить, не снимая штаны.

Ответ
 
Опции темы
Старый 01.08.2019, 09:48   #1
alexpika
Продвинутый
 
Аватар для alexpika
 
Группа: Участники
Регистрация: 18.11.2010
Последний визит: Сегодня
Сообщений: 1,230
Поблагодарил(а): 1,453
Поблагодарили: 21,149

Louis Armstrong - Jazz classic's (Lossless)



Сборник: Louis Armstrong - Jazz classic's
Время звучания: 01:50:55
Жанр: Джаз
Формат: FLAC (image + cue)
Качество: Lossless
Количество треков: 40
Размер архива: 418 mb мб
Язык релиза: английский


Содержание:




Комментарий к релизу:

"Louis Armstrong - Jazz classic's" - хороший сборник лучших композиций великого американского джазмена Луиса Армстронга, выпущенный польской фирмой "Megaus".
Луи Армстронг (англ. Louis Armstrong ; 4 августа 1901, Новый Орлеан, Луизиана — 6 июля 1971, Нью-Йорк) — американский джазовый трубач, вокалист и руководитель ансамбля. Оказал (наряду с Дюком Эллингтоном, Чарли Паркером, Майлсом Дейвисом и Джоном Колтрейном) наибольшее влияние на развитие джаза и сделал многое для его популяризации во всём мире.

Louis Armstrong - Википедия



сканы






[свернуть]


лог


СD 1

Exact Audio Copy V1.0 beta 3 from 29. August 2011

EAC extraction logfile from 15. July 2019, 7:13

Luis Armstrong / Jazz Classics

Used drive : TSSTcorpCDDVDW SH-216DB Adapter: 0 ID: 0

Read mode : Secure
Utilize accurate stream : Yes
Defeat audio cache : Yes
Make use of C2 pointers : No

Read offset correction : 6
Overread into Lead-In and Lead-Out : No
Fill up missing offset samples with silence : Yes
Delete leading and trailing silent blocks : No
Null samples used in CRC calculations : Yes
Used interface : Native Win32 interface for Win NT & 2000

Used output format : User Defined Encoder
Selected bitrate : 1024 kBit/s
Quality : High
Add ID3 tag : No
Command line compressor : C:\Program Files (x86)\Exact Audio Copy\Flac\flac.exe
Additional command line options : -V -8 -T "Date=%year%" -T "Genre=%genre%" %source%


TOC of the extracted CD

Track | Start | Length | Start sector | End sector
---------------------------------------------------------
1 | 0:00.00 | 2:41.27 | 0 | 12101
2 | 2:41.27 | 3:02.22 | 12102 | 25773
3 | 5:43.49 | 2:52.30 | 25774 | 38703
4 | 8:36.04 | 3:29.57 | 38704 | 54435
5 | 12:05.61 | 3:15.52 | 54436 | 69112
6 | 15:21.38 | 2:52.46 | 69113 | 82058
7 | 18:14.09 | 2:37.22 | 82059 | 93855
8 | 20:51.31 | 3:12.22 | 93856 | 108277
9 | 24:03.53 | 3:02.53 | 108278 | 121980
10 | 27:06.31 | 3:26.44 | 121981 | 137474
11 | 30:33.00 | 3:00.05 | 137475 | 150979
12 | 33:33.05 | 3:27.45 | 150980 | 166549
13 | 37:00.50 | 3:20.61 | 166550 | 181610
14 | 40:21.36 | 3:15.31 | 181611 | 196266
15 | 43:36.67 | 3:25.40 | 196267 | 211681
16 | 47:02.32 | 3:10.25 | 211682 | 225956
17 | 50:12.57 | 2:59.24 | 225957 | 239405
18 | 53:12.06 | 2:30.47 | 239406 | 250702
19 | 55:42.53 | 3:00.07 | 250703 | 264209
20 | 58:42.60 | 3:00.21 | 264210 | 277730


Range status and errors

Selected range

Filename R:\Private\My Audio Ripps\Luis Armstrong - Jazz Classics.wav

Peak level 99.9 %
Extraction speed 3.0 X
Range quality 100.0 %
Test CRC 1296CBCE
Copy CRC 1296CBCE
Copy OK

No errors occurred


AccurateRip summary

Track 1 not present in database
Track 2 not present in database
Track 3 not present in database
Track 4 not present in database
Track 5 not present in database
Track 6 not present in database
Track 7 not present in database
Track 8 not present in database
Track 9 not present in database
Track 10 not present in database
Track 11 not present in database
Track 12 not present in database
Track 13 not present in database
Track 14 not present in database
Track 15 not present in database
Track 16 not present in database
Track 17 not present in database
Track 18 not present in database
Track 19 not present in database
Track 20 not present in database

None of the tracks are present in the AccurateRip database

End of status report

==== Log checksum B0B1313733935BAAC8136F2AA7802B043320EDB2398FA482AEA5871BBAD0B04D ====

СD 2

Exact Audio Copy V1.0 beta 3 from 29. August 2011

EAC extraction logfile from 15. July 2019, 7:38

Louis Armstrong / Jazz classics LA 2

Used drive : TSSTcorpCDDVDW SH-216DB Adapter: 0 ID: 0

Read mode : Secure
Utilize accurate stream : Yes
Defeat audio cache : Yes
Make use of C2 pointers : No

Read offset correction : 6
Overread into Lead-In and Lead-Out : No
Fill up missing offset samples with silence : Yes
Delete leading and trailing silent blocks : No
Null samples used in CRC calculations : Yes
Used interface : Native Win32 interface for Win NT & 2000

Used output format : User Defined Encoder
Selected bitrate : 1024 kBit/s
Quality : High
Add ID3 tag : No
Command line compressor : C:\Program Files (x86)\Exact Audio Copy\Flac\flac.exe
Additional command line options : -V -8 -T "Date=%year%" -T "Genre=%genre%" %source%


TOC of the extracted CD

Track | Start | Length | Start sector | End sector
---------------------------------------------------------
1 | 0:00.00 | 2:41.45 | 0 | 12119
2 | 2:41.45 | 2:48.19 | 12120 | 24738
3 | 5:29.64 | 2:30.47 | 24739 | 36035
4 | 8:00.36 | 3:23.30 | 36036 | 51290
5 | 11:23.66 | 3:20.00 | 51291 | 66290
6 | 14:43.66 | 3:27.66 | 66291 | 81881
7 | 18:11.57 | 3:22.38 | 81882 | 97069
8 | 21:34.20 | 2:30.26 | 97070 | 108345
9 | 24:04.46 | 2:53.02 | 108346 | 121322
10 | 26:57.48 | 2:43.68 | 121323 | 133615
11 | 29:41.41 | 3:11.25 | 133616 | 147965
12 | 32:52.66 | 3:15.38 | 147966 | 162628
13 | 36:08.29 | 3:16.67 | 162629 | 177395
14 | 39:25.21 | 3:18.38 | 177396 | 192283
15 | 42:43.59 | 3:17.39 | 192284 | 207097
16 | 46:01.23 | 3:33.61 | 207098 | 223133
17 | 49:35.09 | 3:00.40 | 223134 | 236673
18 | 52:35.49 | 3:00.04 | 236674 | 250177
19 | 55:35.53 | 2:38.15 | 250178 | 262042
20 | 58:13.68 | 3:11.70 | 262043 | 276437


Range status and errors

Selected range

Filename R:\Private\My Audio Ripps\Louis Armstrong - Jazz classics LA 2.wav

Peak level 98.9 %
Extraction speed 6.9 X
Range quality 99.9 %
Test CRC 9D5B4174
Copy CRC 9D5B4174
Copy OK

No errors occurred


AccurateRip summary

Track 1 not present in database
Track 2 not present in database
Track 3 not present in database
Track 4 not present in database
Track 5 not present in database
Track 6 not present in database
Track 7 not present in database
Track 8 not present in database
Track 9 not present in database
Track 10 not present in database
Track 11 not present in database
Track 12 not present in database
Track 13 not present in database
Track 14 not present in database
Track 15 not present in database
Track 16 not present in database
Track 17 not present in database
Track 18 not present in database
Track 19 not present in database
Track 20 not present in database

None of the tracks are present in the AccurateRip database

End of status report

==== Log checksum 7771CFEE8AB215C584C16259FA244BADFB98BC8A0F5111651A65F586711518D6 ====
[свернуть]


Дополнительно:
Оцифровку выполнил: shurele
Звуковая аудиокарта: Realtek High Definition Audio
Оцифрован программой: Exact Audio Copy


Скрытый текст
alexpika на форумеМужчина  
Вверх
Ответ

Навигация
Вернуться   Музыкальный Огонек > Форум > ИНСТРУМЕНТАЛЬНАЯ, ДЖАЗ, БЛЮЗ > Инструменталка, Джаз, Блюз > Дискографии > Louis Armstrong

Опции темы

Ваши права в разделе
Вы не можете создавать новые темы
Вы не можете отвечать в темах
Вы не можете прикреплять вложения
Вы не можете редактировать свои сообщения

BB коды Вкл.
Смайлы Вкл.
[IMG] код Вкл.
HTML код Выкл.







Текущее время: 09:07. Часовой пояс GMT +4.

    Для правообладателей -Обратная связь    Главная   Форум    Архив    Вверх 

Internet Map Анекдоты,музыку,рецепты и не только найдете Вы в Беседке Индекс цитирования Яндекс.Метрика

Copyright ©2004 - 2020, Музыкальный огонек - Русский шансон.

Powered by vBulletin® Version 3.8.9
Copyright ©2000 - 2020, vBulletin Solutions, Inc. Перевод: zCarot