Главная Форум Регистрация Поиск Сообщения за день Все разделы прочитаны Календарь Правила форума Наше радио

Вернуться   Музыкальный Огонек > ЗАРУБЕЖНАЯ ШКАТУЛКА > Зарубежные группы и исполнители > Поп > Сборники


Улыбнитесь
Чтобы вас не искусали комары - возьмите половинку лимона, бутылку текилы, солоночку соли и не ходите на улицу.

Ответ
 
Опции темы
Старый 14.10.2019, 08:20   #1
alexpika
Продвинутый
 
Аватар для alexpika
 
Группа: Участники
Регистрация: 18.11.2010
Последний визит: Вчера
Сообщений: 1,131
Поблагодарил(а): 1,413
Поблагодарили: 18,659

Various ‎– Ultimate Eighties (1998) (Lossless)



Сборник: Various ‎– Ultimate Eighties
Год выпуска: 1998
Время звучания: 01:17:25
Жанр: New Wave, Electro, Synth-pop
Формат: FLAC (image + cue)
Качество: Lossless
Количество треков: 19
Размер архива: 514 мб
Язык релиза: английский


Содержание:

1. OMD - Enola Gay - Producer [Produced By] – Mike Howlett, OMD; Written-By – McCluskey - 3.35
2. Soft Cell - Tainted Love - Engineer [Engineered By] – Paul Hardiman; Producer [Produced By] – Mike Thorne; Written-By – Ed Cobb - 2.41
3. The Human League - (Keep Feeling) Fascination - Written-By – Callis, Oakey - 3.46
4. Heaven 17 - (We Don't Need This) Fascist Groove Thang - Written-By – Gregory, Marsh, Ware - 4.20
5. Simple Minds - Waterfront - Producer [Produced By] – Steve Lillywhite; Written-By – Burchill, Forbes, Kerr, Gaynor, MacNeil - 4.51
6. The Teardrop Explodes - Reward - Producer [Produced By] – Clive Langer And Alan Winstanley; Written-By – Gill, Cope - 2.45
7. Eurythmics - Sweet Dreams (Are Made Of This) - Executive Producer – David A. Stewart; Mixed By – Manu Guiot; Written-By – Lennox, Stewart - 4.54
8. Talk Talk - It's My Life - Written-By – Hollis, Friese-Greene - 3.54
9. China Crisis - King In A Catholic Style - Producer [Produced By] – Phill Brown, Walter Becker; Written-By – Lundon, Daly, Johnson - 4.28
10. Japan Ghosts - Producer [Produced By] – Japan , Written-By – Sylvian - 3.53
11. Spandau Ballet - True - Written-By – Kemp - 5.31
12. Duran Duran - Save A Prayer - Producer [Produced By] – Colin Thurston; Written-By – A. Taylor, N. Rhodes, R. Taylor, S. Le Bon - 5.27
13. Culture Club - Do You Really Want To Hurt Me - Engineer [Assistant Engineer] – Gordon Milne; Producer [Produced By] – Steve Levine; Written-By – Culture Club - 4.26
14. Tears For Fears - Mad World - Producer [Produced By] – Chris Hughes, Ross Cullum; Written-By – Orzabal - 3.35
15. ABC - Poison Arrow - Producer [Produced By] – Trevor Horn; Written-By – Lickley, White, Fry, Singleton - 3.26
16. Visage - Fade To Grey - Arranged By – Visage; Producer [Produced By] – Midge Ure, Visage; Written-By – Currie, Payne, Ure - 3.49
17. The Blow Monkeys - Digging Your Scene - Co-producer – The Axeman; Producer [Produced By] – Michael Baker; Written-By – Dr Robert - 4.09
18. Ultravox - Dancing With Tears In My Eyes - Written-By – Currie, Cross, Ure, Cann - 4.09
19. Gary Numan - Cars - Written-By – Numan - 3.45





Комментарий к релизу:

Выпущен фирмой: Crimson
Каталог №: CRIMIDCD61
Релиз залит на:
yand.Disс

"Various ‎– Ultimate Eighties" - 19-й сборник из серии "Ultimate Eighties Classics", выпущенный фирмой Crimson в 1998 году. В альбом входят хиты таких звезд New Wave, Electro, Synth-pop 90-х годов, как Duran Duran, Gary Newman, Soft Cell, Culture Club и многих других.

сканы








[свернуть]


лог

Exact Audio Copy V1.0 beta 3 from 29. August 2011

EAC extraction logfile from 10. October 2019, 13:46

Various / Ultimate Eighties

Used drive : TSSTcorpCDDVDW SH-216DB Adapter: 0 ID: 0

Read mode : Secure
Utilize accurate stream : Yes
Defeat audio cache : Yes
Make use of C2 pointers : No

Read offset correction : 6
Overread into Lead-In and Lead-Out : No
Fill up missing offset samples with silence : Yes
Delete leading and trailing silent blocks : No
Null samples used in CRC calculations : Yes
Used interface : Native Win32 interface for Win NT & 2000

Used output format : User Defined Encoder
Selected bitrate : 1024 kBit/s
Quality : High
Add ID3 tag : No
Command line compressor : C:\Program Files (x86)\Exact Audio Copy\Flac\flac.exe
Additional command line options : -V -8 -T "Date=%year%" -T "Genre=%genre%" %source%


TOC of the extracted CD

Track | Start | Length | Start sector | End sector
---------------------------------------------------------
1 | 0:00.00 | 3:34.72 | 0 | 16121
2 | 3:34.72 | 2:41.10 | 16122 | 28206
3 | 6:16.07 | 3:46.28 | 28207 | 45184
4 | 10:02.35 | 4:19.47 | 45185 | 64656
5 | 14:22.07 | 4:51.13 | 64657 | 86494
6 | 19:13.20 | 2:44.57 | 86495 | 98851
7 | 21:58.02 | 4:54.33 | 98852 | 120934
8 | 26:52.35 | 3:54.32 | 120935 | 138516
9 | 30:46.67 | 4:28.20 | 138517 | 158636
10 | 35:15.12 | 3:53.10 | 158637 | 176121
11 | 39:08.22 | 5:30.63 | 176122 | 200934
12 | 44:39.10 | 5:27.00 | 200935 | 225459
13 | 50:06.10 | 4:26.10 | 225460 | 245419
14 | 54:32.20 | 3:35.22 | 245420 | 261566
15 | 58:07.42 | 3:26.18 | 261567 | 277034
16 | 61:33.60 | 3:48.42 | 277035 | 294176
17 | 65:22.27 | 4:08.60 | 294177 | 312836
18 | 69:31.12 | 4:08.48 | 312837 | 331484
19 | 73:39.60 | 3:45.27 | 331485 | 348386


Range status and errors

Selected range

Filename R:\Private\My Audio Ripps\Various - Ultimate Eighties.wav

Peak level 97.7 %
Extraction speed 5.0 X
Range quality 100.0 %
Test CRC 564CCC30
Copy CRC 564CCC30
Copy OK

No errors occurred


AccurateRip summary

Track 1 accurately ripped (confidence 5) [8437FCE6] (AR v2)
Track 2 accurately ripped (confidence 5) [11CAF3D1] (AR v2)
Track 3 accurately ripped (confidence 5) [BFF853D6] (AR v2)
Track 4 accurately ripped (confidence 5) [DB8EFD13] (AR v2)
Track 5 accurately ripped (confidence 5) [B8CD5B70] (AR v2)
Track 6 accurately ripped (confidence 5) [1F15EC49] (AR v2)
Track 7 accurately ripped (confidence 4) [AC8C4328] (AR v2)
Track 8 accurately ripped (confidence 5) [505283DA] (AR v2)
Track 9 accurately ripped (confidence 5) [0C7D8A64] (AR v2)
Track 10 accurately ripped (confidence 5) [FEC7A2B5] (AR v2)
Track 11 accurately ripped (confidence 4) [39AE0831] (AR v2)
Track 12 accurately ripped (confidence 4) [6D55836E] (AR v2)
Track 13 accurately ripped (confidence 4) [A6FD9DF1] (AR v2)
Track 14 accurately ripped (confidence 3) [0146EB01] (AR v2)
Track 15 accurately ripped (confidence 4) [46DC5FA4] (AR v2)
Track 16 accurately ripped (confidence 5) [CF2A00F0] (AR v2)
Track 17 accurately ripped (confidence 5) [B8A07E0B] (AR v2)
Track 18 accurately ripped (confidence 5) [97ACC9E9] (AR v2)
Track 19 accurately ripped (confidence 5) [B1540D6B] (AR v2)

All tracks accurately ripped

End of status report

==== Log checksum 6C598E004FA9184915DB5FC4A5F8F0EA7BA5BF5DA60626115FBFE46CA7480894 ====
[свернуть]


Phonographic Copyright (p) – Crimson Productions Ltd.
Copyright (c) – Crimson Productions Ltd.
Pressed By – Disctronics S

UK edition CD compilation.

This compilation
℗ 1998 Crimson Productions Ltd
© 1998 Crimson Productions Ltd

Made in the UK

Track 18 by Ultravox is printed on the sleeve as 'Dancing With My Tears In My Eyes'.

Barcode (Text): 6 54378 20612 2
Barcode (Scanned): 654378206122
Matrix / Runout: DISCTRONICS S CRIMIDCD 61 01
Mastering SID Code: IFPI L501
Mould SID Code (Variant 1): IFPI 8708
Mould SID Code (Variant 2): IFPI 8714
Rights Society: MCPS

Дополнительно:
Рип выполнил: alexpika программой Exact Audio Copy[


Скрытый текст
alexpika вне форумаМужчина  
Вверх
Ответ

Навигация
Вернуться   Музыкальный Огонек > Форум > ЗАРУБЕЖНАЯ ШКАТУЛКА > Зарубежные группы и исполнители > Поп > Сборники

Опции темы

Ваши права в разделе
Вы не можете создавать новые темы
Вы не можете отвечать в темах
Вы не можете прикреплять вложения
Вы не можете редактировать свои сообщения

BB коды Вкл.
Смайлы Вкл.
[IMG] код Вкл.
HTML код Выкл.







Текущее время: 06:53. Часовой пояс GMT +4.

    Для правообладателей -Обратная связь    Главная   Форум    Архив    Вверх 

Internet Map Анекдоты,музыку,рецепты и не только найдете Вы в Беседке Индекс цитирования Яндекс.Метрика

Copyright ©2004 - 2019, Музыкальный огонек - Русский шансон.

Powered by vBulletin® Version 3.8.9
Copyright ©2000 - 2019, vBulletin Solutions, Inc. Перевод: zCarot