Главная Форум Регистрация Поиск Сообщения за день Все разделы прочитаны Календарь Правила форума Наше радио

Вернуться   Музыкальный Огонек > ЗАРУБЕЖНАЯ ШКАТУЛКА > Зарубежные группы и исполнители > Рок > Альбомы


Улыбнитесь
Чтобы вас не искусали комары - возьмите половинку лимона, бутылку текилы, солоночку соли и не ходите на улицу.

Ответ
 
Опции темы
Старый 23.10.2019, 09:26   #1
alexpika
Продвинутый
 
Аватар для alexpika
 
Группа: Участники
Регистрация: 18.11.2010
Последний визит: Вчера
Сообщений: 1,105
Поблагодарил(а): 1,401
Поблагодарили: 17,839

Wishbone Ash - Argus (1972) (Lossless)



Исполнитель: Wishbone Ash
Альбом: Argus
Год выпуска: 1972/1991
Время звучания: 00:48:34
Жанр: Прог-Рок
Формат: FLAC (image + cue)
Качество: Lossless
Количество треков: 8
Размер архива: 277 мб
Язык релиза: английский


Содержание:

1. Time Was - 9.46
2. Sometime World - 6.58
3. Blowin' Free - 5.18
4. The King Will Come - 7.08
5. Leaf And Stream - 3.56
6. Warrior - 5.54
7. Throw Down The Sword - 5.57
8. No Easy Road - 3.38





Комментарий к релизу:

Выпущен фирмой: MCA Records
Каталог №: MCAD-10234
Релиз залит на:
yand.Disс

"Argus" — третий студийный альбом британской рок-группы Wishbone Ash, вышедший в 1972 году. "Argus" самая популярная и одна из самых разноплановых работ группы из Девона. Читатели журналов «Sounds» и «Melody Maker» назвали "Argus" лучшим альбомом 1972 года. В музыкальном плане запись представляет собой сочетание фолка, прогрессив-рока, хард-рока и классики. Основными темами альбома являются рыцарство и война. Альбом был спродюсирован Дереком Лоуренсом, известным по работе с британской хардроковой группой Deep Purple. В качестве звукоинженера выступил Мартин Бирч, также тесно сотрудничавший с Deep Purple, а позже работавший с Iron Maiden и множеством других известных тяжёлых рок-групп. Обложка альбома была оформлена дизайнерской студией Hipgnosis. «Argus» занял 3-е место в хит-параде Великобритании и 169-е место в хит-параде американского журнала «Billboard».

Альбом "Argus" - Википедия

Wishbone Ash (читается «уишбоун эш») — британская рок-группа, образованная бас-гитаристом Мартином Тёрнером, гитаристом Гленом Тёрнером и барабанщиком Стивом Аптоном в 1969 году в Девоне, Англия, и исполняющая классический, построенный на жёстких блюзовых структурах хард-рок, делая акцент на импровизациях, характерных для прогрессивного рока.

Wishbone Ash - Википедия



сканы





[свернуть]



лог

Exact Audio Copy V1.0 beta 3 from 29. August 2011

EAC extraction logfile from 18. October 2019, 17:28

Wishbone Ash / Argus

Used drive : TSSTcorpCDDVDW SH-216DB Adapter: 0 ID: 0

Read mode : Secure
Utilize accurate stream : Yes
Defeat audio cache : Yes
Make use of C2 pointers : No

Read offset correction : 6
Overread into Lead-In and Lead-Out : No
Fill up missing offset samples with silence : Yes
Delete leading and trailing silent blocks : No
Null samples used in CRC calculations : Yes
Used interface : Native Win32 interface for Win NT & 2000

Used output format : User Defined Encoder
Selected bitrate : 1024 kBit/s
Quality : High
Add ID3 tag : No
Command line compressor : C:\Program Files (x86)\Exact Audio Copy\Flac\flac.exe
Additional command line options : -V -8 -T "Date=%year%" -T "Genre=%genre%" %source%


TOC of the extracted CD

Track | Start | Length | Start sector | End sector
---------------------------------------------------------
1 | 0:00.33 | 9:45.45 | 33 | 43952
2 | 9:46.03 | 6:57.67 | 43953 | 75294
3 | 16:43.70 | 5:18.55 | 75295 | 99199
4 | 22:02.50 | 7:08.08 | 99200 | 131307
5 | 29:10.58 | 3:56.17 | 131308 | 149024
6 | 33:07.00 | 5:54.43 | 149025 | 175617
7 | 39:01.43 | 5:55.72 | 175618 | 202314
8 | 44:57.40 | 3:36.68 | 202315 | 218582


Range status and errors

Selected range

Filename R:\Private\My Audio Ripps\Wishbone Ash - Argus.wav

Peak level 95.0 %
Extraction speed 2.4 X
Range quality 100.0 %
Test CRC 9D52C5C4
Copy CRC 9D52C5C4
Copy OK

No errors occurred


AccurateRip summary

Track 1 accurately ripped (confidence 58) [C0E68196] (AR v2)
Track 2 accurately ripped (confidence 58) [B455308B] (AR v2)
Track 3 accurately ripped (confidence 58) [AC1A3F8E] (AR v2)
Track 4 accurately ripped (confidence 59) [01433B9F] (AR v2)
Track 5 accurately ripped (confidence 59) [12F638BF] (AR v2)
Track 6 accurately ripped (confidence 59) [57AC6C2A] (AR v2)
Track 7 accurately ripped (confidence 59) [9042617D] (AR v2)
Track 8 accurately ripped (confidence 57) [4D4DEF33] (AR v2)

All tracks accurately ripped

End of status report

==== Log checksum 1BE1BA1C76588D7600AE910953BAB2F0487E690E15270B66CAE5901D4AD8ACFA ====
[свернуть]


Manufactured By – JVC
Phonographic Copyright (p) – MCA Records, Inc.
Copyright (c) – MCA Records, Inc.
Manufactured For – MCA Records, Inc.
Distributed By – Uni Distribution Corp.

Bass Guitar, Vocals, Written-By – Martin Turner
Design, Photography By [Outer Photography] – Hipgnosis
Drums, Percussion, Written-By – Steve Upton
Engineer – Martin Birch
Lead Guitar, Rhythm Guitar, Acoustic Guitar, Slide Guitar, Vocals, Written-By – Ted Turner
Lead Guitar, Rhythm Guitar, Acoustic Guitar, Vocals, Written-By – Andy Powell
Organ – John Tout (tracks: 7)
Photography By [Inside Photos] – Barry Wentzell
Producer – Derek Lawrence

Track 8 is a cd bonus track previously unreleased on album. Originally "B" side of Decca single 53004 - "Blowin' Free" was "A" side.

Most track lengths stated on release do not match actual tracks length on this CD release. (Times shown are not what is printed on cd)

Barcode: 008811023423
Barcode (As Printed): 0 0881-10234-2 3
Matrix / Runout (Mirrored): MCAD–10234 1S 13 MFD BY JVC
SPARS Code: AAD
Rights Society: ASCAP

Дополнительно:
Рип выполнил: alexpika программой Exact Audio Copy


Скрытый текст
alexpika вне форумаМужчина  
Вверх
Ответ

Навигация
Вернуться   Музыкальный Огонек > Форум > ЗАРУБЕЖНАЯ ШКАТУЛКА > Зарубежные группы и исполнители > Рок > Альбомы

Опции темы

Ваши права в разделе
Вы не можете создавать новые темы
Вы не можете отвечать в темах
Вы не можете прикреплять вложения
Вы не можете редактировать свои сообщения

BB коды Вкл.
Смайлы Вкл.
[IMG] код Вкл.
HTML код Выкл.







Текущее время: 00:34. Часовой пояс GMT +4.

    Для правообладателей -Обратная связь    Главная   Форум    Архив    Вверх 

Internet Map Анекдоты,музыку,рецепты и не только найдете Вы в Беседке Индекс цитирования Яндекс.Метрика

Copyright ©2004 - 2019, Музыкальный огонек - Русский шансон.

Powered by vBulletin® Version 3.8.9
Copyright ©2000 - 2019, vBulletin Solutions, Inc. Перевод: zCarot