Главная Форум Регистрация Поиск Сообщения за день Все разделы прочитаны Календарь Правила форума Наше радио

Вернуться   Музыкальный Огонек > МУЗЫКАЛЬНАЯ ПЛАНЕТА > Еврейское местечко > Еврейская музыка (Yiddish, Klezmer и т.д.) > Еврейские альбомы


Улыбнитесь
Чтобы вас не искусали комары - возьмите половинку лимона, бутылку текилы, солоночку соли и не ходите на улицу.

Ответ
 
Опции темы
Старый 05.12.2019, 09:30   #1
alexpika
Продвинутый
 
Аватар для alexpika
 
Группа: Участники
Регистрация: 18.11.2010
Последний визит: Сегодня
Сообщений: 1,461
Поблагодарил(а): 1,506
Поблагодарили: 27,552

Karsten Troyke - Grüne Blätter (1995) (Lossless)



Исполнитель: Karsten Troyke
Альбом: Grüne Blätter
Год выпуска: 1995
Время звучания: 00:55:41
Жанр: Этническая
Формат: FLAC (image + cue)
Качество: Lossless
Количество треков: 17
Размер архива: 318 мб
Язык релиза: идиш


Содержание:

Peter Haas Duo - Furn Furt Men - 1.59
Karsten Troyke - Dus Kelbl - 2.19
Karsten Troyke - Di Mezinke Oysgegebn - 2.50
Karsten Troyke - Grine Bleter - 4.10
Karsten Troyke - Unter Grattes - 3.38
Peter Haas Trio - Hora For Franka - 4.40
Karsten Troyke - La Casutsa Dintre Girle - 3.32
Karsten Troyke - Far die Fraint in Rumenye - 3.18
Karsten Troyke - Di Kurtn=Legerin - 3.31
Karsten Troyke - Gehat Hob Ich A Heym - 3.52
Peter Haas - Separacion - 2.06
Karsten Troyke - I'm Crazy Far She - 3.19
Karsten Troyke - Abi Gezint - 4.04
Karsten Troyke - Shir Hanoded - 3.10
Karsten Troyke - Nor Azoy Hob ich Mut - 2.43
Karsten Troyke - Di Necht Fun Amol - 2.44
Karsten Troyke - A Retenish - 3.57





Комментарий к релизу:

Выпущен фирмой: Raumer Records
Каталог №: RR10105
Релиз залит на:
yand.Disс

"Karsten Troyke - Grüne Blätter" - Вошедшие в этот сборник песни, записанные в период 1995 - 1999 г.г. немецкими (Карстен Тройке, Петер Хааз, Гётц Линденберг, Ян Хермершмидт, Кристоф Ниман, Андре Лоос и Хайко Рётцшер) и русскими музыкантами (Валерий Хоришман, Андрей Судницын и Геннадий Десятник) различны, как времена и страны в которых они были созданы, и как люди, которые их написали.
Карстен Тройке (род. 14 августа 1960 года в Восточном Берлине как Карстен Бертольт Селлхорн) - немецкий певец шансона, актер и оратор, который сделал свое имя благодаря песням на идиш. Он считается одним из самых известных интерпретаторов этого жанра в Европе.



Парень, не имеющий ни капли еврейской крови, посвятил себя возрождению ашкеназийской культуры. Исчезли, некогда шумные, городки, деревеньки, исчезли молельные дома, исчез язык, навсегда исчезли шесть миллионов его носителей. Деды Karstenа тяжело работали, старались... Сейчас души этих скромных работяг вращаются на вертелах в аду, а истлевшие тела - перевертываются в гробах, громыхая костьми и позванивая железными крестами:

Karsten Troyke поет на языке идиш.

Немец, поющий на идиш

Карстен Тройке. Песни на идиш

сканы













[свернуть]


лог

Exact Audio Copy V1.0 beta 3 from 29. August 2011

EAC extraction logfile from 3. December 2019, 7:16

Karsten Troyke / Grine Bleter

Used drive : TSSTcorpCDDVDW SH-216DB Adapter: 0 ID: 0

Read mode : Secure
Utilize accurate stream : Yes
Defeat audio cache : Yes
Make use of C2 pointers : No

Read offset correction : 6
Overread into Lead-In and Lead-Out : No
Fill up missing offset samples with silence : Yes
Delete leading and trailing silent blocks : No
Null samples used in CRC calculations : Yes
Used interface : Native Win32 interface for Win NT & 2000

Used output format : User Defined Encoder
Selected bitrate : 1024 kBit/s
Quality : High
Add ID3 tag : No
Command line compressor : C:\Program Files (x86)\Exact Audio Copy\Flac\flac.exe
Additional command line options : -V -8 -T "Date=%year%" -T "Genre=%genre%" %source%


TOC of the extracted CD

Track | Start | Length | Start sector | End sector
---------------------------------------------------------
1 | 0:00.00 | 2:00.09 | 0 | 9008
2 | 2:00.09 | 2:18.71 | 9009 | 19429
3 | 4:19.05 | 2:52.14 | 19430 | 32343
4 | 7:11.19 | 4:09.54 | 32344 | 51072
5 | 11:20.73 | 3:37.71 | 51073 | 67418
6 | 14:58.69 | 4:42.67 | 67419 | 88635
7 | 19:41.61 | 3:26.57 | 88636 | 104142
8 | 23:08.43 | 3:17.59 | 104143 | 118976
9 | 26:26.27 | 3:30.12 | 118977 | 134738
10 | 29:56.39 | 3:50.17 | 134739 | 152005
11 | 33:46.56 | 2:04.23 | 152006 | 161328
12 | 35:51.04 | 3:26.66 | 161329 | 176844
13 | 39:17.70 | 3:54.07 | 176845 | 194401
14 | 43:12.02 | 3:10.41 | 194402 | 208692
15 | 46:22.43 | 2:42.44 | 208693 | 220886
16 | 49:05.12 | 2:40.55 | 220887 | 232941
17 | 51:45.67 | 3:55.31 | 232942 | 250597


Range status and errors

Selected range

Filename R:\Private\My Audio Ripps\Karsten Troyke - Grine Bleter.wav

Peak level 98.0 %
Extraction speed 7.1 X
Range quality 100.0 %
Test CRC 9B64DF21
Copy CRC 9B64DF21
Copy OK

No errors occurred


AccurateRip summary

Track 1 not present in database
Track 2 not present in database
Track 3 not present in database
Track 4 not present in database
Track 5 not present in database
Track 6 not present in database
Track 7 not present in database
Track 8 not present in database
Track 9 not present in database
Track 10 not present in database
Track 11 not present in database
Track 12 not present in database
Track 13 not present in database
Track 14 not present in database
Track 15 not present in database
Track 16 not present in database
Track 17 not present in database

None of the tracks are present in the AccurateRip database

End of status report

==== Log checksum A1D09C0A4C32BD21B1ECBA4326AE23BEDF7DB651780626A3A3E58027AC879571 ====
[свернуть]


[center]Gesang, Triangel, Windchimes, Klangholz - Karsten Troyke
Akkordeon, Piano - Peter M. Haas
Violine - Andrej Soudnitsyn, Gennadi Dessyatnik
Klarinette - Jan Hermerschmidt
Kontrabas - Christoph Niemann, Andre Loos, Heiko Rötzscher

Дополнительно:
Рип выполнил: alexpika программой Exact Audio Copy


Скрытый текст
alexpika вне форумаМужчина  
Вверх
Ответ

Навигация
Вернуться   Музыкальный Огонек > Форум > МУЗЫКАЛЬНАЯ ПЛАНЕТА > Еврейское местечко > Еврейская музыка (Yiddish, Klezmer и т.д.) > Еврейские альбомы

Опции темы

Ваши права в разделе
Вы не можете создавать новые темы
Вы не можете отвечать в темах
Вы не можете прикреплять вложения
Вы не можете редактировать свои сообщения

BB коды Вкл.
Смайлы Вкл.
[IMG] код Вкл.
HTML код Выкл.







Текущее время: 14:26. Часовой пояс GMT +4.

    Для правообладателей -Обратная связь    Главная   Форум    Архив    Вверх 

Internet Map Анекдоты,музыку,рецепты и не только найдете Вы в Беседке Индекс цитирования Яндекс.Метрика

Copyright ©2004 - 2020, Музыкальный огонек - Русский шансон.

Powered by vBulletin® Version 3.8.9
Copyright ©2000 - 2020, vBulletin Solutions, Inc. Перевод: zCarot