Главная Форум Регистрация Поиск Сообщения за день Все разделы прочитаны Календарь Правила форума Наше радио

Вернуться   Музыкальный Огонек > ИНСТРУМЕНТАЛЬНАЯ, ДЖАЗ, БЛЮЗ > Инструменталка, Джаз, Блюз > Инструментальные сборники


Улыбнитесь
Приятель рассказывал как, перечитывая давеча "Войну и мир", и, наткнувшись на фразу "Пьер Безухов распечатал письмо", минут пять пытался понять: каким образом ему это удалось и где он нашел принтер.

Ответ
 
Опции темы
Старый 22.09.2019, 10:07   #1
alexpika
Продвинутый
 
Аватар для alexpika
 
Группа: Участники
Регистрация: 18.11.2010
Последний визит: Вчера
Сообщений: 1,107
Поблагодарил(а): 1,401
Поблагодарили: 17,926

Pasodobles (Lossless)



Сборник: Pasodobles
Время звучания: 00:36:34
Жанр: Латино
Формат: FLAC (image + cue)
Качество: Lossless
Количество треков: 16
Размер архива: 275 мб


Содержание:

01 Espana Cani - P.MARKQUINA - 2.52
02 Y Viva Espana - L. CAERTS/ROZENSTRAETEEN/M. DE GOMEZ - 2.13
03 Islas Canarias - J.M. TARKIDAS - 2.24
04 Suspiros de Espana - A. ALVAREZ - 3.42
05 Ay mi Sombrero - PERELLO/MONREAL - 2.12
06 El Gato Montes - M. PENELLA - 2.51
07 Mi Jaca - PERELLO/MONSTAZO - 2.07
08 Valencia - J.PADILLA - 2.27
09 Paquito el Chocolatero - POPULAR - 2.52
10 Domingo Ortega - LEDESMA/OROPESA - 2.01
11 Tengo Miedo Torero - A.KAPS/A.ALGUERO - 2.08
12 La Giralda - E.I. JUARRANT - 2.11
13 Francisco Alegre - QUIINTERO/LEDN/ODIROGA - 3.07
14 Gallito - S.LOPEZ - 2.39
15 Clavelitos - S.GALINDO/G.MONREAL - 2.33
16 El Relicario - J.PADILLA - 2.55





Комментарий к релизу:

Выпущен фирмой: Mediterraneo Music S.L.
Каталог №: MOO10D
Релиз залит на:
yand.Disс

"Pasodobles" - сборник самых известных и популярных пасодоблей в исполнении ансамбля "Banda de la Real Feria", выпущенных фирмой Mediterraneo Music S.L.
Пасодобль (исп. Paso doble — «двойной шаг») — испанский танец, имитирующий корриду. Первое название танца — «испанский уанстеп» («Spanish one-step»), поскольку шаги делаются на каждый счёт. Пасодобль был одним из многих испанских народных танцев, связанных с различными аспектами испанской жизни. Частично пасодобль основан на бое быков. Партнер изображает тореро, а партнерша — его мулету или капоте (кусок ярко-красной ткани в руках матадора), иногда — второго тореро, и совсем редко — быка, как правило, поверженного финальным ударом. Характер музыки соответствует процессии перед корридой (el paseíllo), которая обычно проходит под аккомпанемент пасодобля. В спортивных бальных танцах пасодобль начинают танцевать с возраста Юниоры-1 танцевальные пары не ниже C-класса.

Пасодобль - Википедия

сканы





[свернуть]


лог

Exact Audio Copy V1.0 beta 3 from 29. August 2011

EAC extraction logfile from 7. September 2019, 18:34

Banda de la Real Feria / Paso Dobles

Used drive : TSSTcorpCDDVDW SH-216DB Adapter: 0 ID: 0

Read mode : Secure
Utilize accurate stream : Yes
Defeat audio cache : Yes
Make use of C2 pointers : No

Read offset correction : 6
Overread into Lead-In and Lead-Out : No
Fill up missing offset samples with silence : Yes
Delete leading and trailing silent blocks : No
Null samples used in CRC calculations : Yes
Used interface : Native Win32 interface for Win NT & 2000

Used output format : User Defined Encoder
Selected bitrate : 1024 kBit/s
Quality : High
Add ID3 tag : No
Command line compressor : C:\Program Files (x86)\Exact Audio Copy\Flac\flac.exe
Additional command line options : -V -8 -T "Date=%year%" -T "Genre=%genre%" %source%


TOC of the extracted CD

Track | Start | Length | Start sector | End sector
---------------------------------------------------------
1 | 0:00.32 | 2:52.15 | 32 | 12946
2 | 2:52.47 | 2:12.50 | 12947 | 22896
3 | 5:05.22 | 2:24.00 | 22897 | 33696
4 | 7:29.22 | 3:42.15 | 33697 | 50361
5 | 11:11.37 | 2:12.33 | 50362 | 60294
6 | 13:23.70 | 2:50.52 | 60295 | 73096
7 | 16:14.47 | 2:07.23 | 73097 | 82644
8 | 18:21.70 | 2:27.27 | 82645 | 93696
9 | 20:49.22 | 2:51.40 | 93697 | 106561
10 | 23:40.62 | 2:00.68 | 106562 | 115629
11 | 25:41.55 | 2:07.70 | 115630 | 125224
12 | 27:49.50 | 2:11.02 | 125225 | 135051
13 | 30:00.52 | 3:07.28 | 135052 | 149104
14 | 33:08.05 | 2:38.65 | 149105 | 161019
15 | 35:46.70 | 2:32.57 | 161020 | 172476
16 | 38:19.52 | 2:54.55 | 172477 | 185581


Range status and errors

Selected range

Filename R:\Private\My Audio Ripps\Banda de la Real Feria - Paso Dobles.wav

Peak level 97.9 %
Extraction speed 2.4 X
Range quality 99.9 %
Test CRC D51456C9
Copy CRC D51456C9
Copy OK

No errors occurred


AccurateRip summary

Track 1 accurately ripped (confidence 1) [49CB27C4] (AR v2)
Track 2 accurately ripped (confidence 1) [96536599] (AR v2)
Track 3 accurately ripped (confidence 1) [F4141B04] (AR v2)
Track 4 accurately ripped (confidence 1) [BE144C9B] (AR v2)
Track 5 accurately ripped (confidence 1) [3B7EEA70] (AR v2)
Track 6 accurately ripped (confidence 1) [79F6FD3C] (AR v2)
Track 7 accurately ripped (confidence 1) [23AD9520] (AR v2)
Track 8 accurately ripped (confidence 1) [F4462F46] (AR v2)
Track 9 accurately ripped (confidence 1) [C808C083] (AR v2)
Track 10 accurately ripped (confidence 1) [4A7A60CD] (AR v2)
Track 11 accurately ripped (confidence 1) [72D64636] (AR v2)
Track 12 accurately ripped (confidence 1) [87CC6ADF] (AR v2)
Track 13 accurately ripped (confidence 1) [C2A1179B] (AR v2)
Track 14 accurately ripped (confidence 1) [334C8DE1] (AR v2)
Track 15 accurately ripped (confidence 1) [623166D1] (AR v2)
Track 16 accurately ripped (confidence 1) [98CA2974] (AR v2)

All tracks accurately ripped

End of status report

==== Log checksum D44D2098490C4392E251A3378FCF40ADC5DCA8F98B1E6B65C1B63A9DE8CA6F44 ====
[свернуть]


Дополнительно:
Рип выполнил: alexpika, программой Exact Audio Copy


Скрытый текст
alexpika вне форумаМужчина  
Вверх
Ответ

Навигация
Вернуться   Музыкальный Огонек > Форум > ИНСТРУМЕНТАЛЬНАЯ, ДЖАЗ, БЛЮЗ > Инструменталка, Джаз, Блюз > Инструментальные сборники

Опции темы

Ваши права в разделе
Вы не можете создавать новые темы
Вы не можете отвечать в темах
Вы не можете прикреплять вложения
Вы не можете редактировать свои сообщения

BB коды Вкл.
Смайлы Вкл.
[IMG] код Вкл.
HTML код Выкл.







Текущее время: 03:10. Часовой пояс GMT +4.

    Для правообладателей -Обратная связь    Главная   Форум    Архив    Вверх 

Internet Map Анекдоты,музыку,рецепты и не только найдете Вы в Беседке Индекс цитирования Яндекс.Метрика

Copyright ©2004 - 2019, Музыкальный огонек - Русский шансон.

Powered by vBulletin® Version 3.8.9
Copyright ©2000 - 2019, vBulletin Solutions, Inc. Перевод: zCarot