Главная Форум Регистрация Поиск Сообщения за день Все разделы прочитаны Календарь Правила форума Наше радио

Вернуться   Музыкальный Огонек > СТАРАЯ ПЛАСТИНКА > Коллекции альбомов по исполнителям > Вокальный квартет Аккорд


Улыбнитесь
Еда – это лучшее удовольствие, которое можно получить, не снимая штаны.

Ответ
 
Опции темы
Старый 20.05.2017, 09:15   #1
alexpika
Долгожитель
 
Аватар для alexpika
 
Группа: Участники
Регистрация: 18.11.2010
Последний визит: Сегодня
Сообщений: 908
Поблагодарил(а): 1,356
Поблагодарили: 11,748

серия "Grand Collection" - вокальный квартет Аккорд - записи 1966 - 1985

вокальный квартет Аккорд

записи 1966 - 1985



"Аккорд" — советский музыкальный коллектив, активно работавший на эстраде в 1966—1985 годах. Отличительной чертой квартета стало максимальное использование голосовых возможностей каждого участника, чистоты интонации, тембровой уравновешенности (гармоничного сочетания высоких голосов 3. и Ш. Харабадзе с низкими голосами партнеров). Так, по мнению участников квартета, полновесно, благозвучно даже в диссонансах и должен звучать аккорд. В каждой исполняемой песне квартет был узнаваем, хотя менял характер звучания, окраску голосов, сочетание тембров, щедро используя подвижные ритмические и динамические штрихи.

вокальный квартет "Аккорд" - Википедия



Альбом: записи 1966 - 1985
Исполнитель: вокальный квартет Аккорд
Год выпуска: 2000
Время звучания: 00:58:27
Жанр: Acoustic, Вокал, поп
Формат: FLAC (tracks)/ MP3 (320) (tracks)
Качество: Lossless
Количество треков: 20
Размер архива: flac - 326 Mb; mp3 (320kbps) - 137 Mb
Язык релиза: русский

Содержание:

1 Генералы песчаных карьеров
2 Наши любимые - Lyrics By – Игорь Шаферан, Music By – Давид Тухманов
3 Возвращайся
4 Ты и я
5 Пингвины - Lyrics By – Анатолий Горохов
6 Назло - Lyrics By – Роберт Рождественский, Music By – Александр Флярковский
7 Ноктюрн
8 Звездопад - Music By – Александра Пахмутова
9 Манжерок - Lyrics By – Наум Олев, Music By – Оскар Фельцман
10 Мои цыплята
11 Песня об Одиссее - Music By – Александр Зацепин
12 Поющие острова
13 Диалог о любви - Lyrics By – Юрий Энтин
14 Белая лебедушка - Lyrics By – Игорь Шаферан, Music By – Вадим Гамалия
15 Хлоп-хлоп - Lyrics By – Михаил Пляцковский
16 Скоморох
17 Грустиночка
18 Люди говорят
19 Ветка рябины - Lyrics By – Лев Ошанин
20 Ты помнишь - Lyrics By – Михаил Пляцковский


сканы

[свернуть]



лог

Exact Audio Copy V1.0 beta 3 from 29. August 2011

EAC extraction logfile from 16. May 2017, 14:56

вокальный квартет Аккорд / Grand Collection

Used drive : TSSTcorpCDDVDW SH-216DB Adapter: 0 ID: 0

Read mode : Secure
Utilize accurate stream : Yes
Defeat audio cache : Yes
Make use of C2 pointers : No

Read offset correction : 6
Overread into Lead-In and Lead-Out : No
Fill up missing offset samples with silence : Yes
Delete leading and trailing silent blocks : No
Null samples used in CRC calculations : Yes
Used interface : Native Win32 interface for Win NT & 2000

Used output format : User Defined Encoder
Selected bitrate : 1024 kBit/s
Quality : High
Add ID3 tag : No
Command line compressor : C:\Program Files (x86)\Exact Audio Copy\Flac\flac.exe
Additional command line options : -V -8 -T "Date=%year%" -T "Genre=%genre%" %source%


TOC of the extracted CD

Track | Start | Length | Start sector | End sector
---------------------------------------------------------
1 | 0:00.00 | 3:09.02 | 0 | 14176
2 | 3:09.02 | 2:17.71 | 14177 | 24522
3 | 5:26.73 | 3:44.36 | 24523 | 41358
4 | 9:11.34 | 2:58.33 | 41359 | 54741
5 | 12:09.67 | 2:02.65 | 54742 | 63956
6 | 14:12.57 | 3:07.51 | 63957 | 78032
7 | 17:20.33 | 3:28.01 | 78033 | 93633
8 | 20:48.34 | 3:04.01 | 93634 | 107434
9 | 23:52.35 | 2:07.08 | 107435 | 116967
10 | 25:59.43 | 2:00.22 | 116968 | 125989
11 | 27:59.65 | 2:38.69 | 125990 | 137908
12 | 30:38.59 | 3:51.52 | 137909 | 155285
13 | 34:30.36 | 2:20.11 | 155286 | 165796
14 | 36:50.47 | 3:59.64 | 165797 | 183785
15 | 40:50.36 | 2:10.34 | 183786 | 193569
16 | 43:00.70 | 2:24.73 | 193570 | 204442
17 | 45:25.68 | 3:29.32 | 204443 | 220149
18 | 48:55.25 | 2:25.31 | 220150 | 231055
19 | 51:20.56 | 3:30.47 | 231056 | 246852
20 | 54:51.28 | 3:35.73 | 246853 | 263050


Range status and errors

Selected range

Filename L:\Private\My Audio Ripps\ CD - RIPS\вокальный квартет Аккорд - Grand Collection\вокальный квартет Аккорд - Grand Collection.wav

Peak level 75.4 %
Extraction speed 3.2 X
Range quality 100.0 %
Test CRC 1CC6524E
Copy CRC 1CC6524E
Copy OK

No errors occurred


AccurateRip summary

Track 1 cannot be verified as accurate (confidence 2) [C4E6C5BF], AccurateRip returned [1DE7D304] (AR v2)
Track 2 cannot be verified as accurate (confidence 2) [0A18E1AD], AccurateRip returned [D24F9F5C] (AR v2)
Track 3 cannot be verified as accurate (confidence 2) [8A0AE49F], AccurateRip returned [8EB2BDF2] (AR v2)
Track 4 cannot be verified as accurate (confidence 2) [AA35FE9F], AccurateRip returned [F5969375] (AR v2)
Track 5 cannot be verified as accurate (confidence 2) [05AAE809], AccurateRip returned [AC12792C] (AR v2)
Track 6 cannot be verified as accurate (confidence 2) [765AFCDA], AccurateRip returned [47E59290] (AR v2)
Track 7 cannot be verified as accurate (confidence 2) [36E2B1BF], AccurateRip returned [B17F299A] (AR v2)
Track 8 cannot be verified as accurate (confidence 2) [8E74FA64], AccurateRip returned [E6DCB9FD] (AR v2)
Track 9 cannot be verified as accurate (confidence 2) [4596981A], AccurateRip returned [94F55D84] (AR v2)
Track 10 cannot be verified as accurate (confidence 2) [61E06254], AccurateRip returned [343CD7EA] (AR v2)
Track 11 cannot be verified as accurate (confidence 2) [7D1A02E1], AccurateRip returned [43E34236] (AR v2)
Track 12 cannot be verified as accurate (confidence 2) [E1EDA9A8], AccurateRip returned [D8667C46] (AR v2)
Track 13 cannot be verified as accurate (confidence 2) [AB7EE12B], AccurateRip returned [1F3CFB50] (AR v2)
Track 14 cannot be verified as accurate (confidence 2) [0ABC6EC4], AccurateRip returned [FCBAC9A7] (AR v2)
Track 15 cannot be verified as accurate (confidence 2) [B47DEA6F], AccurateRip returned [9A829AC3] (AR v2)
Track 16 cannot be verified as accurate (confidence 2) [55F72D5A], AccurateRip returned [42D3FD83] (AR v2)
Track 17 cannot be verified as accurate (confidence 2) [C9336921], AccurateRip returned [8B4759CB] (AR v2)
Track 18 cannot be verified as accurate (confidence 2) [9E07190E], AccurateRip returned [21A8C412] (AR v2)
Track 19 cannot be verified as accurate (confidence 2) [C06388E7], AccurateRip returned [D4894CA3] (AR v2)
Track 20 cannot be verified as accurate (confidence 2) [FFEA7AD8], AccurateRip returned [7BEC11CA] (AR v2)

No tracks could be verified as accurate
You may have a different pressing from the one(s) in the database

End of status report

==== Log checksum 237901497D4F642EEB078E9825931FE6C079A293737AF9B787AF8CF7899B6C7D ====
[свернуть]




Printed By – ООО "Артишок"
Licensed From – Мелодия
Designed At – ВГdesign

Design – Василий Гаврилов, Павел Семенов
Remastered By – Т. Бадеян

(c) 2000 "Квадро Диск"
(р) 2000 "Фирма Мелодия"
Записи 1966 - 1985
В1 - из к/ф "Ангел в тюбетейке"
Вокальный квартет "Аккорд": З.Харабадзе,Ш,Харабадзе,И.Мясникова,В.Лыньковский
Инструментальные ансамбли:
"Мелодия" п\у Г.Гараняна,"Мираж".эстрадный оркестр п\у В.Людвиковского
Записи 1966-1985

Barcode: 4606344000681

Рип - мой



Страна: СССР, Россия
Издатель (лейбл): Квадро-Диск ‎– GCR 006
Формат: FLAC / MP3 (320)
Параметры: CD Copy, Album, Compilation, Stereo, Mono, Rip, image, log, cue
Источник: копия СД из собственной коллекции


Скрытый текст
alexpika вне форумаМужчина  
Вверх
Ответ

Навигация
Вернуться   Музыкальный Огонек > Форум > СТАРАЯ ПЛАСТИНКА > Коллекции альбомов по исполнителям > Вокальный квартет Аккорд

Опции темы

Ваши права в разделе
Вы не можете создавать новые темы
Вы не можете отвечать в темах
Вы не можете прикреплять вложения
Вы не можете редактировать свои сообщения

BB коды Вкл.
Смайлы Вкл.
[IMG] код Вкл.
HTML код Выкл.







Текущее время: 01:15. Часовой пояс GMT +4.

    Для правообладателей -Обратная связь    Главная   Форум    Архив    Вверх 

Internet Map Анекдоты,музыку,рецепты и не только найдете Вы в Беседке Индекс цитирования Яндекс.Метрика

Copyright ©2004 - 2018, Музыкальный огонек - Русский шансон.

Powered by vBulletin® Version 3.8.9
Copyright ©2000 - 2018, vBulletin Solutions, Inc. Перевод: zCarot