Главная Форум Регистрация Поиск Сообщения за день Все разделы прочитаны Календарь Правила форума Наше радио

Вернуться   Музыкальный Огонек > МУЗЫКАЛЬНАЯ ПЛАНЕТА > Еврейское местечко > Еврейская музыка (Yiddish, Klezmer и т.д.) > Еврейские альбомы


Улыбнитесь
Приятель рассказывал как, перечитывая давеча "Войну и мир", и, наткнувшись на фразу "Пьер Безухов распечатал письмо", минут пять пытался понять: каким образом ему это удалось и где он нашел принтер.

Ответ
 
Опции темы
Старый 06.12.2019, 10:08   #1
alexpika
Продвинутый
 
Аватар для alexpika
 
Группа: Участники
Регистрация: 18.11.2010
Последний визит: Сегодня
Сообщений: 1,244
Поблагодарил(а): 1,453
Поблагодарили: 21,446

The Klezmatics, Chava Alberstein - The Well (1998) (Lossless)



Исполнитель: The Klezmatics, Chava Alberstein
Альбом: The Well
Год выпуска: 1998
Время звучания: 00:53:25
Жанр: Фольклор
Формат: FLAC (image + cue)
Качество: Lossless
Количество треков: 15
Размер архива: 299 мб
Язык релиза: идиш


Содержание:

1. Di Krenitse (The Well) - 4.10
2. Ikh Shtey Unter A Bokserboym (I Stand Beneath A Carob Tree) - 3.52
3. Ergets Shtil / Baym Taykh (Softly Somewhere / At The River) - 3.42
4. Ver Es Hot (One Has Got) - 4.03
5. Ovnt Lid (Crepuscule) - 3.30
6. A Malekh Veynt (An Angel Weeps) - 1.18
7. Bay Nakht (At Night) - 2.50
8. Vek Nisht (Don't Waken) - 2.42
9. Kh'vel Oyston Di Shikh (I'm Going To Take Off My Shoes) - 4.08
10. Mayn Shvester Khaye (My Sister Khaye) - 3.58
11. Umetik (Lonesome) - 4.17
12. Di Elter (Old Age) - 3.05
13. Velkhes Meydl S'nemt A Bokher (Any Girl Who Takes A Boyfriend) - 2.54
14. Di Goldene Pave (The Golden Peacock) - 3.59
15. Zayt Gezunt (Farewell) - 4.27





Комментарий к релизу:

Выпущен фирмой: Music & Words
Каталог №: MWCD 4026
Релиз залит на:
yand.Disс

"The Well" представляет собой сборник стихотворений, созданных на идиш в разные годы XX века и положенных на музыку, написанную Хавой Альберштейн, с аранжировками, мастерски созданными The Klezmatics. Альбом содержит всестороннюю подборку современной и классической поэзии с разнообразными темами - от душераздирающего одиночества до беззаботных и радостных песен. Когда в 1995 году израильская певица Хава Альберштейн снял документальный фильм о идишских поэтах 20-го века (“Too Early to Be Quiet, Too Late to Sing”), рассказы поэтов вдохновили Альберштейн на то, чтобы положить некоторые из этих стихотворений на музыку. Результаты собраны на альбоме "The Well" с вокалом Альберштейн и музыкой в исполнении Klezmatics. Композиции отражают широкий спектр стилей, в которых поет Альберштейна от клезмерской и традиционной еврейской музыки до французского шансона, немецкого кабаре, американского фолка и ближневосточных стилей.
(Стив Хьюи, AMG) (Xenophile, 1996)

Хава Альберштейн (ивр. ‏חווה אלברשטיין‏‎; род. 8 декабря 1947, Щецин, Польша) — израильская певица, композитор, автор песенных текстов.

Хава Альберштейн - Википедия

Klezmatics - это группа из Нью-Йорка, которая объединяет в своем творчестве клезмерскую музыку евреев Восточной Европы с многочисленными музыкальными направлениями от джаза до ска и рока. Благодаря своему характерному кроссоверному миксу они являются одними из самых коммерчески успешных исполнителей популярной еврейской музыки в мире. В феврале 2007 года их альбом "Wonder Wheel", содержащий неизвестные тексты Woody Guthrie, был назван лучшим альбомом современной мировой музыки и отмечен премией Грэмми.

сканы

сканы















[свернуть]
[свернуть]


лог

Exact Audio Copy V1.0 beta 3 from 29. August 2011

EAC extraction logfile from 4. December 2019, 7:28

The Klezmatics & Chava Alberstein / The Well

Used drive : TSSTcorpCDDVDW SH-216DB Adapter: 0 ID: 0

Read mode : Secure
Utilize accurate stream : Yes
Defeat audio cache : Yes
Make use of C2 pointers : No

Read offset correction : 6
Overread into Lead-In and Lead-Out : No
Fill up missing offset samples with silence : Yes
Delete leading and trailing silent blocks : No
Null samples used in CRC calculations : Yes
Used interface : Native Win32 interface for Win NT & 2000

Used output format : User Defined Encoder
Selected bitrate : 1024 kBit/s
Quality : High
Add ID3 tag : No
Command line compressor : C:\Program Files (x86)\Exact Audio Copy\Flac\flac.exe
Additional command line options : -V -8 -T "Date=%year%" -T "Genre=%genre%" %source%


TOC of the extracted CD

Track | Start | Length | Start sector | End sector
---------------------------------------------------------
1 | 0:00.00 | 4:11.30 | 0 | 18854
2 | 4:11.30 | 3:52.00 | 18855 | 36254
3 | 8:03.30 | 3:44.37 | 36255 | 53091
4 | 11:47.67 | 4:05.23 | 53092 | 71489
5 | 15:53.15 | 3:32.00 | 71490 | 87389
6 | 19:25.15 | 1:20.55 | 87390 | 93444
7 | 20:45.70 | 2:52.00 | 93445 | 106344
8 | 23:37.70 | 2:42.12 | 106345 | 118506
9 | 26:20.07 | 4:10.68 | 118507 | 137324
10 | 30:31.00 | 4:00.45 | 137325 | 155369
11 | 34:31.45 | 4:18.50 | 155370 | 174769
12 | 38:50.20 | 3:07.00 | 174770 | 188794
13 | 41:57.20 | 2:57.32 | 188795 | 202101
14 | 44:54.52 | 4:01.05 | 202102 | 220181
15 | 48:55.57 | 4:28.73 | 220182 | 240354


Range status and errors

Selected range

Filename R:\Private\My Audio Ripps\The Klezmatics & Chava Alberstein - The Well.wav

Peak level 96.6 %
Extraction speed 4.2 X
Range quality 100.0 %
Test CRC 4D8A3031
Copy CRC 4D8A3031
Copy OK

No errors occurred


AccurateRip summary

Track 1 accurately ripped (confidence 8) [BC2623EF] (AR v2)
Track 2 accurately ripped (confidence 8) [CC1E8B03] (AR v2)
Track 3 accurately ripped (confidence 8) [CDA95BE7] (AR v2)
Track 4 accurately ripped (confidence 8) [55E63CE3] (AR v2)
Track 5 accurately ripped (confidence 8) [033B0AD7] (AR v2)
Track 6 accurately ripped (confidence 8) [2171C5BD] (AR v2)
Track 7 accurately ripped (confidence 8) [3B876A16] (AR v2)
Track 8 accurately ripped (confidence 8) [6FFC4816] (AR v2)
Track 9 accurately ripped (confidence 8) [E1FE9DCE] (AR v2)
Track 10 accurately ripped (confidence 8) [0E4C2686] (AR v2)
Track 11 accurately ripped (confidence 8) [DB131607] (AR v2)
Track 12 accurately ripped (confidence 8) [3E37C2E2] (AR v2)
Track 13 accurately ripped (confidence 8) [0E143024] (AR v2)
Track 14 accurately ripped (confidence 8) [8F6B0E7D] (AR v2)
Track 15 accurately ripped (confidence 8) [1B1AA8B6] (AR v2)

All tracks accurately ripped

End of status report

==== Log checksum 1D3526B93A813EF53EE46AEA04FF7D6C3A023A498FC1354BF9FB2227B0713681 ====
[свернуть]


Recorded At – Avatar Studios
Mixed At – Sound On Sound, New York
Mastered At – Utopia Parkway Studios

Executive-Producer – Itzik Becher
Mastered By, Technician [Assistant] – George Leger
Mixed By – Marc Ramaer
Producer, Mixed By – Ben Mink
Recorded By [Assistant], Recorded By [Additional] – Rory Romano

Barcode: 8 712618402627

Дополнительно:
Рип выполнил: alexpika программой Exact Audio Copy


Скрытый текст
alexpika вне форумаМужчина  
Вверх
Ответ

Навигация
Вернуться   Музыкальный Огонек > Форум > МУЗЫКАЛЬНАЯ ПЛАНЕТА > Еврейское местечко > Еврейская музыка (Yiddish, Klezmer и т.д.) > Еврейские альбомы

Опции темы

Ваши права в разделе
Вы не можете создавать новые темы
Вы не можете отвечать в темах
Вы не можете прикреплять вложения
Вы не можете редактировать свои сообщения

BB коды Вкл.
Смайлы Вкл.
[IMG] код Вкл.
HTML код Выкл.







Текущее время: 10:26. Часовой пояс GMT +4.

    Для правообладателей -Обратная связь    Главная   Форум    Архив    Вверх 

Internet Map Анекдоты,музыку,рецепты и не только найдете Вы в Беседке Индекс цитирования Яндекс.Метрика

Copyright ©2004 - 2020, Музыкальный огонек - Русский шансон.

Powered by vBulletin® Version 3.8.9
Copyright ©2000 - 2020, vBulletin Solutions, Inc. Перевод: zCarot