Главная Форум Регистрация Поиск Сообщения за день Все разделы прочитаны Календарь Правила форума Наше радио

Вернуться   Музыкальный Огонек > МУЗЫКАЛЬНАЯ ПЛАНЕТА > Еврейское местечко > Еврейская музыка (Yiddish, Klezmer и т.д.) > Еврейские альбомы


Улыбнитесь
Приятель рассказывал как, перечитывая давеча "Войну и мир", и, наткнувшись на фразу "Пьер Безухов распечатал письмо", минут пять пытался понять: каким образом ему это удалось и где он нашел принтер.

Ответ
 
Опции темы
Старый 03.12.2019, 09:26   #1
alexpika
Продвинутый
 
Аватар для alexpika
 
Группа: Участники
Регистрация: 18.11.2010
Последний визит: Сегодня
Сообщений: 1,244
Поблагодарил(а): 1,453
Поблагодарили: 21,446

Frejlachs aus Czernowitz - Frejlachs aus Czernowitz Vol. 2 (2006) (Lossless)



Исполнитель: Frejlachs aus Czernowitz
Альбом: Frejlachs aus Czernowitz Vol. 2
Год выпуска: 2006
Время звучания: 00:45:35
Жанр: Фольклор
Формат: FLAC (image + cue)
Качество: Lossless
Количество треков: 12
Размер архива: 256 мб


Содержание:

01. Wohlhabender Bräutigam (L. Satulowskij) - Маєтний нареченний - (Л.Затуловский) - 2.19
02. Balagula (L. Satulowskij) - Балагула (Л.Затуловский) - 2.07
03. Zol Sein Gelebt (Traditional) - Нехай буду життя (Traditional) - 3.03
04. Machn Schabes (Traditional) - Готуємося до суботи (Traditional) - 2.59
05. Mazel Tov Traditional - Бажаю щастя, в добрий час (Traditional) - 4.33
06. Chora (Traditional) - Хора (танець) (Traditional) - 5.58
07. Walzer (M. Fainer) - Вальс М.Файнер) - 4.23
08. Kupplertanz (Traditional) - Танок сватiв (Traditional) - 3.56
09. Frejlachs (L. Satulowskij) - Фрейлехс (веселий танок) (Л.Затуловский) - 2.43
10. Rejwach (L. Satulowskij) - Угода (Л.Затуловский) - 2.14
11. Paraphrase auf das Lied von H. Jablokov "Kaufe die Papirossen" (L. Satulowskij) - Парафраз на тему пiснi Г. Яблокова "Купите цигарки" (Л.Затуловский) - 4.21
12. Hochzeitsmosaik (L. Satulowskij) - Весільна мозаїка (Л.Затуловский) - 6.58





Комментарий к релизу:

Выпущен фирмой: UR/Interval Ukrainian Records, Interval
Каталог №: 110506 - 2
Релиз залит на:
yand.Disс

"Frejlachs aus Czernowitz" - Фрейлехс iз Чернiвцiв - Orchester der jiddischen Musik unter der Leitung von Lev Feldman - Оркестр еврейскоi музики пiд керуванням Лева Фельдмана - сборник, включающий лучшие песни идишисткого фольклора в инструментальной обработке. Исполнители оркестр - "Фрейлехс" под рукодством Льва Фельдмана из украинского города Черновцы. Альбом записан в Австрии. Спонсор - Die Kärnter Sparkasse.[/center]

сканы




[свернуть]


лог

Exact Audio Copy V1.0 beta 3 from 29. August 2011

EAC extraction logfile from 1. December 2019, 8:18

Frejlachs aus Czernowitz / Frejlachs aus Czernowitz

Used drive : TSSTcorpCDDVDW SH-216DB Adapter: 0 ID: 0

Read mode : Secure
Utilize accurate stream : Yes
Defeat audio cache : Yes
Make use of C2 pointers : No

Read offset correction : 6
Overread into Lead-In and Lead-Out : No
Fill up missing offset samples with silence : Yes
Delete leading and trailing silent blocks : No
Null samples used in CRC calculations : Yes
Used interface : Native Win32 interface for Win NT & 2000

Used output format : User Defined Encoder
Selected bitrate : 1024 kBit/s
Quality : High
Add ID3 tag : No
Command line compressor : C:\Program Files (x86)\Exact Audio Copy\Flac\flac.exe
Additional command line options : -V -8 -T "Date=%year%" -T "Genre=%genre%" %source%


TOC of the extracted CD

Track | Start | Length | Start sector | End sector
---------------------------------------------------------
1 | 0:00.00 | 2:19.36 | 0 | 10460
2 | 2:19.36 | 2:07.06 | 10461 | 19991
3 | 4:26.42 | 3:03.23 | 19992 | 33739
4 | 7:29.65 | 2:58.73 | 33740 | 47162
5 | 10:28.63 | 4:33.24 | 47163 | 67661
6 | 15:02.12 | 5:57.55 | 67662 | 94491
7 | 20:59.67 | 4:22.39 | 94492 | 114180
8 | 25:22.31 | 3:56.34 | 114181 | 131914
9 | 29:18.65 | 2:43.21 | 131915 | 144160
10 | 32:02.11 | 2:13.52 | 144161 | 154187
11 | 34:15.63 | 4:21.03 | 154188 | 173765
12 | 38:36.66 | 6:58.02 | 173766 | 205117


Range status and errors

Selected range

Filename R:\Private\My Audio Ripps\Frejlachs aus Czernowitz - Frejlachs aus Czernowitz.wav

Peak level 95.3 %
Extraction speed 4.1 X
Range quality 100.0 %
Test CRC 3031B020
Copy CRC 3031B020
Copy OK

No errors occurred


AccurateRip summary

Track 1 not present in database
Track 2 not present in database
Track 3 not present in database
Track 4 not present in database
Track 5 not present in database
Track 6 not present in database
Track 7 not present in database
Track 8 not present in database
Track 9 not present in database
Track 10 not present in database
Track 11 not present in database
Track 12 not present in database

None of the tracks are present in the AccurateRip database

End of status report

==== Log checksum 880AB6F5DAC0772BD65C03988738E023238F442AAF01BAE47ACBC974ACEC5803 ====
[свернуть]

[center]Состав оркестра:

Мар'ян Зубжизкий - скрипка
Людмила Никируй - скрипка
Юрiй Плаксiн - скрипка
Володимир Гавришко - альт
Iгор Кадюк - вiолончель
Геннадiй Юрiй - кларнет
Андрiй Ших - флейта
Андрiй Пожога - Аккордеон
Яросла Кшижевський - труба
Леонiд Фоменко - тромбон
Георгiй Висоцький - цимбали
Вiктор Кшеменецький - ударнi
Олег Попелухiн - ксилофон
Василь Митринюк - вiбрафон

Produziert von Sergij Osatschuk

Recording, premestering - www.interval.com.ua
Replication/The license of Universal Music B.V.
Sponsor - Die Kärnter Sparkasse

Дополнительно:
Рип выполнил: alexpika программой Exact Audio Copy


Скрытый текст
alexpika вне форумаМужчина  
Вверх
Ответ

Навигация
Вернуться   Музыкальный Огонек > Форум > МУЗЫКАЛЬНАЯ ПЛАНЕТА > Еврейское местечко > Еврейская музыка (Yiddish, Klezmer и т.д.) > Еврейские альбомы

Опции темы

Ваши права в разделе
Вы не можете создавать новые темы
Вы не можете отвечать в темах
Вы не можете прикреплять вложения
Вы не можете редактировать свои сообщения

BB коды Вкл.
Смайлы Вкл.
[IMG] код Вкл.
HTML код Выкл.







Текущее время: 10:22. Часовой пояс GMT +4.

    Для правообладателей -Обратная связь    Главная   Форум    Архив    Вверх 

Internet Map Анекдоты,музыку,рецепты и не только найдете Вы в Беседке Индекс цитирования Яндекс.Метрика

Copyright ©2004 - 2020, Музыкальный огонек - Русский шансон.

Powered by vBulletin® Version 3.8.9
Copyright ©2000 - 2020, vBulletin Solutions, Inc. Перевод: zCarot