Главная Форум Регистрация Поиск Сообщения за день Все разделы прочитаны Календарь Правила форума Наше радио

Вернуться   Музыкальный Огонек > МУЗЫКАЛЬНАЯ ПЛАНЕТА > Щедра Украина > Сборники


Улыбнитесь
Еда – это лучшее удовольствие, которое можно получить, не снимая штаны.

Ответ
 
Опции темы
Старый 27.08.2014, 15:26   #1
янеЖ
Пользователь
 
Аватар для янеЖ
 
Группа: Участники
Регистрация: 25.08.2009
Последний визит: Вчера
Адрес: Украина
Город: Шепетовка
Сообщений: 58
Поблагодарил(а): 177
Поблагодарили: 1,878

VA - Художні колективи та хори 60-70' (2014) (Lossless)



Сборник: VA - Художні колективи та хори 60-70'
Год выпуска: 2014
Время звучания: 01:19:55
Жанр: Фольклор
Формат: FLAC (image + cue)
Качество: Lossless
Количество треков: 27
Размер архива: 301 мб
Язык релиза: украинский


Содержание:

[02:06] 01. Вокальний ансамбль Смерічка - Росинка
[02:44] 02. Лідія Зборовська - Зіронько моя
[04:37] 03. Закарпатський нар. хор - Та піду я, піду (солістка В.Баганич)
[02:12] 04. Закарпатський нар. хор - Покладу, покладу значок на віконце
[02:51] 05. Закарпатський нар. хор - Тече вода каламутна
[02:44] 06. Закарпатський нар. хор - Ой мигалю, мигалю (коломийка)
[02:06] 07. Троїста музика братів Презляти - Чи Ви м'я, музики не впізнали
[02:05] 08. хор Галичанка Рогатинського БК - Ой я дівка-чорнобривка
[05:57] 09. Нар анс пісні і танцю Бойківщина - Бойківські коломийки (сучасні)
[02:06] 10. Нар анс пісні і танцю Бойківщина - Ішло дівча лучками
[03:20] 11. Нар анс пісні і танцю Бойківщина - Котилася люлька
[01:22] 12. Нар анс пісні і танцю Бойківщина - Жартівливі коломийки
[02:33] 13. Кубанський козачий хор - Ти ж мене підманула
[03:16] 14. Кубанський козачий хор - Розпрягайте, хлопці коні
[01:58] 15. Капела Чернівецького Державного Університету - Вічний Революціонер
[03:43] 16. Капела Чернівецького Державного Університету - Вечір
[02:55] 17. Капела Чернівецького Державного Університету - Гомін, гомін по діброві
[03:45] 18. Капела Чернівецького Державного Університету - Ой ходив чумак
[02:27] 19. Вокальний дует Стефанія Дяків, Любомира Рапей - Порізаний пальчик (Льв обл)
[03:06] 20. Бойківські сопілкарі Сколівського р-ну - Бойківські жартівливі коломийки
[03:28] 21. М.Ферцак, Ст.Рикавець - Ой на плаю
[02:14] 22. Чоловічий хор капела Бистрінь - Бистріннь
[04:06] 23. Чоловічий хор капела Бистрінь - Стоїть над Волгою курган
[04:09] 24. Чоловічий хор капела Бистрінь - Синові
[02:23] 25. Чоловічий хор капела Бистрінь - Журавлі
[02:29] 26. Вокальний ансамбль с.Кути - Вечір в Карпатах
[02:58] 27. Чоловічий квартет Галицького БК - Як ніч мя накриє


Скрытый текст

Последний раз редактировалось Vostanovitel; 23.10.2016 в 01:21.
янеЖ вне форумаМужчина  
Вверх
Старый 27.08.2014, 16:45   #2
янеЖ
Пользователь
 
Аватар для янеЖ
 
Группа: Участники
Регистрация: 25.08.2009
Последний визит: Вчера
Адрес: Украина
Город: Шепетовка
Сообщений: 58
Поблагодарил(а): 177
Поблагодарили: 1,878

В плейлисте cue, были допущены орфографические ошибки, исправил.
Правильный (куй)

REM GENRE Folk
REM DATE 2014
REM DISCID AD12BA1B
REM COMMENT "ExactAudioCopy v0.99pb5"
PERFORMER "VA"
TITLE "Художні колективи та хори"
FILE "VA - Художні колективи та хори.flac" WAVE
TRACK 01 AUDIO
TITLE "Росинка"
PERFORMER "Вокальний ансамбль Смерічка"
INDEX 01 00:00:00
TRACK 02 AUDIO
TITLE "Зіронько моя"
PERFORMER "Лідія Зборовська"
INDEX 01 02:06:34
TRACK 03 AUDIO
TITLE "Та піду я, піду (солістка В.Баганич)"
PERFORMER "Закарпатський нар. хор"
INDEX 01 04:50:65
TRACK 04 AUDIO
TITLE "Покладу, покладу значок на віконце "
PERFORMER "Закарпатський нар. хор"
INDEX 01 09:28:05
TRACK 05 AUDIO
TITLE "Тече вода каламутна"
PERFORMER "Закарпатський нар. хор"
INDEX 01 11:40:67
TRACK 06 AUDIO
TITLE "Ой мигалю, мигалю (коломийка)"
PERFORMER "Закарпатський нар. хор"
INDEX 01 14:32:61
TRACK 07 AUDIO
TITLE "Чи Ви м'я, музики не впізнали"
PERFORMER "Троїста музика братів Презляти"
INDEX 01 17:17:30
TRACK 08 AUDIO
TITLE "Ой я дівка-чорнобривка"
PERFORMER "хор Галичанка Рогатинського БК"
INDEX 01 19:24:26
TRACK 09 AUDIO
TITLE "Бойківські коломийки (сучасні)"
PERFORMER "Нар анс пісні і танцю Бойківщина"
INDEX 01 21:29:60
TRACK 10 AUDIO
TITLE "Ішло дівча лучками"
PERFORMER "Нар анс пісні і танцю Бойківщина"
INDEX 01 27:27:46
TRACK 11 AUDIO
TITLE "Котилася люлька"
PERFORMER "Нар анс пісні і танцю Бойківщина"
INDEX 01 29:34:12
TRACK 12 AUDIO
TITLE "Жартівливі коломийки"
PERFORMER "Нар анс пісні і танцю Бойківщина"
INDEX 01 32:54:34
TRACK 13 AUDIO
TITLE "Ти ж мене підманула"
PERFORMER "Кубанський козачий хор"
INDEX 01 34:16:73
TRACK 14 AUDIO
TITLE "Розпрягайте, хлопціконі"
PERFORMER "Кубанський козачий хор"
INDEX 01 36:50:56
TRACK 15 AUDIO
TITLE "Вічний Революціонер"
PERFORMER "Капела Чернівецького Держ Університету"
INDEX 01 40:07:00
TRACK 16 AUDIO
TITLE "Вечір"
PERFORMER "Капела Чернівецького Держ Університету"
INDEX 01 42:05:42
TRACK 17 AUDIO
TITLE "Гомін, гомін по діброві"
PERFORMER "Капела Чернівецького Держ Університету"
INDEX 01 45:48:63
TRACK 18 AUDIO
TITLE "Ой ходив чумак"
PERFORMER "Капела Чернівецького Держ Університету"
INDEX 01 48:44:48
TRACK 19 AUDIO
TITLE "Порізаний пальчик (Льв обл)"
PERFORMER "Вокальний дует Стефанія Дяків, Любомира Рапей"
INDEX 01 52:30:15
TRACK 20 AUDIO
TITLE "Бойківські жартівливі коломийки"
PERFORMER "Бойківські сопілкарі Сколівського р-ну"
INDEX 01 54:57:45
TRACK 21 AUDIO
TITLE "Ой на плаю"
PERFORMER "М.Ферцак, Ст.Рикавець"
INDEX 01 58:04:43
TRACK 22 AUDIO
TITLE "Бистрінь"
PERFORMER "Чоловічий хор капела Бистрінь"
INDEX 01 61:32:74
TRACK 23 AUDIO
TITLE "Стоїть над Волгою курган"
PERFORMER "Чоловічий хор капела Бистрінь"
INDEX 01 63:47:66
TRACK 24 AUDIO
TITLE "Синові"
PERFORMER "Чоловічий хор капела Бистрінь"
INDEX 01 67:54:44
TRACK 25 AUDIO
TITLE "Журавлі"
PERFORMER "Чоловічий хор капела Бистрінь"
INDEX 01 72:03:44
TRACK 26 AUDIO
TITLE "Вечір в Карпатах"
PERFORMER "Вокальний ансамбль с.Кути"
INDEX 01 74:27:28
TRACK 27 AUDIO
TITLE "Як ніч мя накриє"
PERFORMER "Чоловічий квартет Галицького БК"
INDEX 01 76:56:44
янеЖ вне форумаМужчина  
Вверх
Старый 30.08.2014, 08:31   #3
Mbamba
Пользователь
 
Аватар для Mbamba
 
Группа: Участники
Регистрация: 10.01.2009
Последний визит: Вчера
Адрес: Россия
Город: Чистополь
Сообщений: 51
Поблагодарил(а): 4,565
Поблагодарили: 111

Спасибо, эти пластиночки целиком бы послушать!
Mbamba вне форумаМужчина  
Вверх
Старый 22.10.2016, 00:52   #4
Джек 007
Долгожитель
 
Аватар для Джек 007
 
Группа: Участники
Регистрация: 17.04.2016
Последний визит: Сегодня
Адрес: Россия
Сообщений: 893
Поблагодарил(а): 6,780
Поблагодарили: 290

Сылка сдохла…!!! Обновите пожалуйста ссылку…!!!
__________________
Соломон нам оставил два мудрых совета:-Убегай от тоски и с глупцами не спорь !!!
Джек 007 вне форумаМужчина  
Вверх
Старый 23.10.2016, 01:21   #5
Vostanovitel
Расторопный
 
Аватар для Vostanovitel
 
Группа: Модераторы
Регистрация: 10.05.2015
Последний визит: Сегодня
Адрес: Украина
Город: Никополь
Сообщений: 6,727
Поблагодарил(а): 6,666
Поблагодарили: 99,638

Цитата:
Сообщение от Джек 007
Сылка сдохла…!!! Обновите пожалуйста ссылку…!!!

Ссылку обновил.
__________________
Еженедельные новинки шансона ТУТ

Vostanovitel вне форумаМужчина  
Вверх
Старый 23.10.2016, 09:28   #6
Джек 007
Долгожитель
 
Аватар для Джек 007
 
Группа: Участники
Регистрация: 17.04.2016
Последний визит: Сегодня
Адрес: Россия
Сообщений: 893
Поблагодарил(а): 6,780
Поблагодарили: 290

Спасибо тебе Костя за обновленную сылку...!!!
__________________
Соломон нам оставил два мудрых совета:-Убегай от тоски и с глупцами не спорь !!!

Последний раз редактировалось Джек 007; 10.11.2016 в 16:40.
Джек 007 вне форумаМужчина  
Вверх
Ответ

Навигация
Вернуться   Музыкальный Огонек > Форум > МУЗЫКАЛЬНАЯ ПЛАНЕТА > Щедра Украина > Сборники

Опции темы

Ваши права в разделе
Вы не можете создавать новые темы
Вы не можете отвечать в темах
Вы не можете прикреплять вложения
Вы не можете редактировать свои сообщения

BB коды Вкл.
Смайлы Вкл.
[IMG] код Вкл.
HTML код Выкл.







Текущее время: 13:42. Часовой пояс GMT +4.

    Для правообладателей -Обратная связь    Главная   Форум    Архив    Вверх 

Internet Map Анекдоты,музыку,рецепты и не только найдете Вы в Беседке Индекс цитирования Яндекс.Метрика

Copyright ©2004 - 2018, Музыкальный огонек - Русский шансон.

Powered by vBulletin® Version 3.8.9
Copyright ©2000 - 2018, vBulletin Solutions, Inc. Перевод: zCarot