Главная Форум Регистрация Поиск Сообщения за день Все разделы прочитаны Календарь Правила форума Наше радио

Вернуться   Музыкальный Огонек > ЗАРУБЕЖНАЯ ШКАТУЛКА > Народные песни и мотивы Америки > Кантри


Улыбнитесь
Еда – это лучшее удовольствие, которое можно получить, не снимая штаны.

Ответ
 
Опции темы
Старый 08.12.2016, 09:14   #1
alexpika
Долгожитель
 
Аватар для alexpika
 
Группа: Участники
Регистрация: 18.11.2010
Последний визит: Вчера
Сообщений: 782
Поблагодарил(а): 1,338
Поблагодарили: 10,127

Johnny Cash ‎– The Original Sun Single Collection 1955-1959

Johnny Cash

The Original Sun Single Collection 1955-1959



Джо́нни Кэш (англ. Johnny Cash; 26 февраля 1932, Кингсленд, Арканзас — 12 сентября 2003, Нашвилл, Теннесси) — американский певец и композитор-песенник, ключевая фигура в музыке кантри, является одним из самых влиятельных музыкантов XX века. Несмотря на то, что в первую очередь его признали иконой кантри, исполнение песен в таких жанрах как госпел, рок-н-ролл и рокабилли — не редкость. Благодаря своей музыке, стилю жизни на сцене и вне её заслужил авторитет среди большого круга любителей музыки, далеко за пределами жанра кантри. Сам себя позиционировал как исполнителя «христианского кантри». С Джонни Кэшем ассоциируется устойчивое словосочетание «Человек в чёрном» (англ. Man In Black), поскольку с 1960-х годов для него было характерно ношение тёмной одежды (причины этого он поясняет в тексте одноимённой песни «Man in Black» 1971 года).

Johnny Cash - Википедия


Альбом: The Original Sun Single Collection 1955-1959
Исполнитель: Johnny Cash
Год выпуска: 1990
Время звучания: 00:59:08
Жанр: Rockabilly, Country
Формат: FLAC (tracks)/ MP3 (320) (tracks)
Качество: Lossless
Количество треков: 28
Размер архива: flac - 335 Mb; mp3 (320kbps) - 154 Mb
Язык релиза: английский

Содержание:

1 Hey Porter 2:12
2 Cry Cry Cry 2:25
3 Folsom Prison Blues 2:45
4 So Doggone Lonesome 2:36
5 Get Rhythm 2:11
6 I Walk The Line 2:41
7 There You Go 2:15
8 Train Of Love 2:21
9 Don't Make Me Go 2:27
10 The Next In Line 2:41
11 Home Of The Blues 2:36
12 Give My Love To Rose 2:34
13 Big River 2:32
14 Ballad Of A Teenage Queen 2:09
15 Guess Things Happen That Way 1:49
16 Come In Stranger 1:40
17 The Ways Of A Woman In Love 2:14
18 You Are The Nearest Thing To Heaven 2:39
19 I Just Thought You'd Like To Know 2:29
20 It's Just ABout Time 2:06
21 Thanks A Lot 2:33
22 Luther Played The Boogie 2:03
23 I Forgot To Remember To Forget 1:50
24 Katy Too 1:55
25 You Tell Me 1:18
26 Goodbye Little Darling 2:11

Extra Tracks
27 Straight A's In Love 2:13
28 I Love You Because 2:23


Сканы

[свернуть]


Лог

Exact Audio Copy V1.0 beta 3 from 29. August 2011

EAC extraction logfile from 7. December 2016, 7:09

Johnny Cash / The Original Sun Singles Collection 1955-1959

Used drive : TSSTcorpCDDVDW SH-216DB Adapter: 0 ID: 0

Read mode : Secure
Utilize accurate stream : Yes
Defeat audio cache : Yes
Make use of C2 pointers : No

Read offset correction : 6
Overread into Lead-In and Lead-Out : No
Fill up missing offset samples with silence : Yes
Delete leading and trailing silent blocks : No
Null samples used in CRC calculations : Yes
Used interface : Native Win32 interface for Win NT & 2000

Used output format : User Defined Encoder
Selected bitrate : 1024 kBit/s
Quality : High
Add ID3 tag : No
Command line compressor : C:\Program Files (x86)\Exact Audio Copy\Flac\flac.exe
Additional command line options : -V -8 -T "Date=%year%" -T "Genre=%genre%" %source%


TOC of the extracted CD

Track | Start | Length | Start sector | End sector
---------------------------------------------------------
1 | 0:00.33 | 2:12.40 | 33 | 9972
2 | 2:12.73 | 2:25.65 | 9973 | 20912
3 | 4:38.63 | 2:49.02 | 20913 | 33589
4 | 7:27.65 | 2:38.05 | 33590 | 45444
5 | 10:05.70 | 2:19.23 | 45445 | 55892
6 | 12:25.18 | 2:49.57 | 55893 | 68624
7 | 15:15.00 | 2:17.70 | 68625 | 78969
8 | 17:32.70 | 2:27.50 | 78970 | 90044
9 | 20:00.45 | 2:28.60 | 90045 | 101204
10 | 22:29.30 | 2:42.15 | 101205 | 113369
11 | 25:11.45 | 2:39.03 | 113370 | 125297
12 | 27:50.48 | 2:39.72 | 125298 | 137294
13 | 30:30.45 | 2:33.10 | 137295 | 148779
14 | 33:03.55 | 2:12.28 | 148780 | 158707
15 | 35:16.08 | 1:51.45 | 158708 | 167077
16 | 37:07.53 | 1:41.57 | 167078 | 174709
17 | 38:49.35 | 2:18.55 | 174710 | 185114
18 | 41:08.15 | 2:40.70 | 185115 | 197184
19 | 43:49.10 | 2:27.40 | 197185 | 208249
20 | 46:16.50 | 2:06.40 | 208250 | 217739
21 | 48:23.15 | 2:39.30 | 217740 | 229694
22 | 51:02.45 | 2:03.55 | 229695 | 238974
23 | 53:06.25 | 1:56.35 | 238975 | 247709
24 | 55:02.60 | 1:56.03 | 247710 | 256412
25 | 56:58.63 | 1:18.62 | 256413 | 262324
26 | 58:17.50 | 2:15.18 | 262325 | 272467
27 | 60:32.68 | 2:16.50 | 272468 | 282717
28 | 62:49.43 | 2:23.05 | 282718 | 293447


Range status and errors

Selected range

Filename L:\Private\My Audio Ripps\ CD - RIPS\Johnny Cash - The Original Sun Singles Collection 1955 - 1959\Johnny Cash - The Original Sun Singles Collection 1955-1959.wav

Peak level 94.0 %
Extraction speed 2.4 X
Range quality 99.9 %
Test CRC CA4F3C73
Copy CRC CA4F3C73
Copy OK

No errors occurred


AccurateRip summary

Track 1 accurately ripped (confidence 8) [21C59ECE] (AR v2)
Track 2 accurately ripped (confidence 8) [F252DCDD] (AR v2)
Track 3 accurately ripped (confidence 9) [FBBE080E] (AR v2)
Track 4 accurately ripped (confidence 7) [64FC887C] (AR v2)
Track 5 accurately ripped (confidence 9) [89FA220A] (AR v2)
Track 6 accurately ripped (confidence 9) [2CC6C425] (AR v2)
Track 7 accurately ripped (confidence 8) [1DDB42EF] (AR v2)
Track 8 accurately ripped (confidence 8) [8EC4C540] (AR v2)
Track 9 accurately ripped (confidence 8) [798002B3] (AR v2)
Track 10 accurately ripped (confidence 8) [C5A11476] (AR v2)
Track 11 accurately ripped (confidence 8) [D96C7F1F] (AR v2)
Track 12 accurately ripped (confidence 8) [9B992087] (AR v2)
Track 13 accurately ripped (confidence 8) [76412A36] (AR v2)
Track 14 accurately ripped (confidence 8) [EB46FB37] (AR v2)
Track 15 accurately ripped (confidence 9) [A49113E8] (AR v2)
Track 16 accurately ripped (confidence 8) [FEA04F29] (AR v2)
Track 17 accurately ripped (confidence 8) [4185B7AA] (AR v2)
Track 18 accurately ripped (confidence 8) [A47E4104] (AR v2)
Track 19 accurately ripped (confidence 8) [7BA408C8] (AR v2)
Track 20 accurately ripped (confidence 8) [8B99F31D] (AR v2)
Track 21 accurately ripped (confidence 8) [60A23F01] (AR v2)
Track 22 accurately ripped (confidence 8) [A99786ED] (AR v2)
Track 23 accurately ripped (confidence 8) [19C488DC] (AR v2)
Track 24 accurately ripped (confidence 7) [8BB5D204] (AR v2)
Track 25 accurately ripped (confidence 6) [26D56DDF] (AR v2)
Track 26 accurately ripped (confidence 6) [40150A05] (AR v2)
Track 27 accurately ripped (confidence 6) [222089B2] (AR v2)
Track 28 accurately ripped (confidence 6) [16749FD0] (AR v2)

All tracks accurately ripped

End of status report

==== Log checksum 9594725E0DE6164E5FBAB40246A94AEB68322ED169DF37423E5569D7622EEE00 ====
[свернуть]



Рип - мой


Страна: Европа
Издатель (лейбл): Sun Record Company ‎– SUN CD 502, Green Line Records ‎– SUN CD 502
Формат: FLAC / MP3 (320)
Параметры: CD, Compilation, Rip, image, log, cue
Источник: CD из собственной коллекции


Скрытый текст
alexpika вне форумаМужчина  
Вверх
Ответ

Навигация
Вернуться   Музыкальный Огонек > Форум > ЗАРУБЕЖНАЯ ШКАТУЛКА > Народные песни и мотивы Америки > Кантри

Опции темы

Ваши права в разделе
Вы не можете создавать новые темы
Вы не можете отвечать в темах
Вы не можете прикреплять вложения
Вы не можете редактировать свои сообщения

BB коды Вкл.
Смайлы Вкл.
[IMG] код Вкл.
HTML код Выкл.







Текущее время: 07:41. Часовой пояс GMT +4.

    Для правообладателей -Обратная связь    Главная   Форум    Архив    Вверх 

Internet Map Анекдоты,музыку,рецепты и не только найдете Вы в Беседке Индекс цитирования Яндекс.Метрика

Copyright ©2004 - 2017, Музыкальный огонек - Русский шансон.

Powered by vBulletin® Version 3.8.9
Copyright ©2000 - 2017, vBulletin Solutions, Inc. Перевод: zCarot