Главная Форум Регистрация Поиск Сообщения за день Все разделы прочитаны Календарь Правила форума Наше радио

Вернуться   Музыкальный Огонек > СТАРАЯ ПЛАСТИНКА > Сборники > Золотая коллекция ретро


Улыбнитесь
- Ты где был? Я весь день звонил тебе на сотовый, а он всё "вне зоны доступа".
- А… Я просто телефон ношу завернутым в фольгу, чтобы он своим излучением мне на мозг не действовал!
- Мда… Ну, что сказать… Поздно ты стал телефон в фольгу заворачивать.

Ответ
 
Опции темы
Старый 31.10.2019, 10:00   #1
alexpika
Продвинутый
 
Аватар для alexpika
 
Группа: Участники
Регистрация: 18.11.2010
Последний визит: Вчера
Сообщений: 1,144
Поблагодарил(а): 1,414
Поблагодарили: 19,005

Оскар Строк ‎– Танго Оскара Строка (1997) (Lossless)



Сборник: Оскар Строк ‎– Танго Оскара Строка
Год выпуска: 1997
Время звучания: 01:00:49
Жанр: Джаз
Формат: FLAC (image + cue)
Качество: Lossless
Количество треков: 19
Размер архива: 305 мб
Язык релиза: русский


Содержание:

1. Мое последнее танго
2. Голубые глаза
3. Скажите, почему (Слова О.Строка)
4. Марианна
5. В разлуке (Слова О.Строка)
6. Песня любви
7. Былое увлечение (Слова О.Строка)
8. Неаполитанское танго (Обработка А.Бухгольца)
9. Когда весна придет опять
10. Черные глаза (Слова О.Строка)
11. Мусинька родная (Слова О.Строка)
12. Не упрекай (Обработка И.Кантюкова)
13. Мечта
14. Звездное счастье (Слова А.Горохова)
15. Ожидание (Обработка А.Бухгольца)
16. Зимнее танго (Обработка А.Бухгольца)
17. Не покидай (Слова О.Строка)
18. Танго-фантазия (Обработка Б.Фрумкина)
19. Лунная рапсодия (Слова О.Строка)





Комментарий к релизу:

Выпущен фирмой: Мелодия
Каталог №: MEL CD 60 00482
Релиз залит на:
yand.Disс

"Танго Оскара Строка" - сборник самых популярных танго, написанных Оскаром Строком, в исполнении лучших артистов российской и советской эстрады. Альбом выпущен на компакт диске фирмой "Мелодия" в 1997 году.
Оскар Давидович Строк (латыш. Oskars Stroks, 6 января 1893 — 22 июня 1975) — латвийский, российский и советский композитор. Выдающийся мелодист, прозванный «королём танго».

Оскар Строк - Википедия

сканы






[свернуть]


лог

Exact Audio Copy V1.0 beta 3 from 29. August 2011

EAC extraction logfile from 20. October 2019, 19:36

разные / Танго Оскара Строка

Used drive : TSSTcorpCDDVDW SH-216DB Adapter: 0 ID: 0

Read mode : Secure
Utilize accurate stream : Yes
Defeat audio cache : Yes
Make use of C2 pointers : No

Read offset correction : 6
Overread into Lead-In and Lead-Out : No
Fill up missing offset samples with silence : Yes
Delete leading and trailing silent blocks : No
Null samples used in CRC calculations : Yes
Used interface : Native Win32 interface for Win NT & 2000

Used output format : User Defined Encoder
Selected bitrate : 1024 kBit/s
Quality : High
Add ID3 tag : No
Command line compressor : C:\Program Files (x86)\Exact Audio Copy\Flac\flac.exe
Additional command line options : -V -8 -T "Date=%year%" -T "Genre=%genre%" %source%


TOC of the extracted CD

Track | Start | Length | Start sector | End sector
---------------------------------------------------------
1 | 0:00.00 | 3:09.50 | 0 | 14224
2 | 3:09.50 | 2:52.42 | 14225 | 27166
3 | 6:02.17 | 4:19.63 | 27167 | 46654
4 | 10:22.05 | 3:06.00 | 46655 | 60604
5 | 13:28.05 | 2:55.15 | 60605 | 73744
6 | 16:23.20 | 3:39.60 | 73745 | 90229
7 | 20:03.05 | 2:29.12 | 90230 | 101416
8 | 22:32.17 | 3:16.03 | 101417 | 116119
9 | 25:48.20 | 3:11.35 | 116120 | 130479
10 | 28:59.55 | 3:17.32 | 130480 | 145286
11 | 32:17.12 | 3:26.05 | 145287 | 160741
12 | 35:43.17 | 3:36.63 | 160742 | 177004
13 | 39:20.05 | 2:46.07 | 177005 | 189461
14 | 42:06.12 | 2:45.08 | 189462 | 201844
15 | 44:51.20 | 4:10.67 | 201845 | 220661
16 | 49:02.12 | 2:46.08 | 220662 | 233119
17 | 51:48.20 | 2:48.67 | 233120 | 245786
18 | 54:37.12 | 2:58.08 | 245787 | 259144
19 | 57:35.20 | 3:14.05 | 259145 | 273699


Range status and errors

Selected range

Filename R:\Private\My Audio Ripps\Танго Оскара Строка.wav

Peak level 83.9 %
Extraction speed 3.2 X
Range quality 99.9 %
Test CRC 43A0FDD4
Copy CRC 43A0FDD4
Copy OK

No errors occurred


AccurateRip summary

Track 1 not present in database
Track 2 not present in database
Track 3 not present in database
Track 4 not present in database
Track 5 not present in database
Track 6 not present in database
Track 7 not present in database
Track 8 not present in database
Track 9 not present in database
Track 10 not present in database
Track 11 not present in database
Track 12 not present in database
Track 13 not present in database
Track 14 not present in database
Track 15 not present in database
Track 16 not present in database
Track 17 not present in database
Track 18 not present in database
Track 19 not present in database

None of the tracks are present in the AccurateRip database

End of status report

==== Log checksum 66D77338AC0418205CC1C36E1B9F982D3E5AF1DDC766457B11A34AAA02A2F76A ====
[свернуть]


Manufactured By – ООО "Уральский Электронный Завод"

В. Трошин (3, 17), Н. Никитский (5), К. Шульженко (7), П. Лещенко(10, 11), Ю. Гуляев (14), Л. Утесов(19), Инструментальный Ансамбль "Мелодия" П/У Г. Гараняна (1-6,8,9,12,13, 15-18)

Barcode (Printed): 4 600317 004829
Barcode (Scanned): 4600317004829

Дополнительно:
Рип выполнил: alexpika программой Exact Audio Copy


Скрытый текст
alexpika вне форумаМужчина  
Вверх
Ответ

Навигация
Вернуться   Музыкальный Огонек > Форум > СТАРАЯ ПЛАСТИНКА > Сборники > Золотая коллекция ретро

Опции темы

Ваши права в разделе
Вы не можете создавать новые темы
Вы не можете отвечать в темах
Вы не можете прикреплять вложения
Вы не можете редактировать свои сообщения

BB коды Вкл.
Смайлы Вкл.
[IMG] код Вкл.
HTML код Выкл.







Текущее время: 03:44. Часовой пояс GMT +4.

    Для правообладателей -Обратная связь    Главная   Форум    Архив    Вверх 

Internet Map Анекдоты,музыку,рецепты и не только найдете Вы в Беседке Индекс цитирования Яндекс.Метрика

Copyright ©2004 - 2020, Музыкальный огонек - Русский шансон.

Powered by vBulletin® Version 3.8.9
Copyright ©2000 - 2020, vBulletin Solutions, Inc. Перевод: zCarot