Главная Форум Регистрация Поиск Сообщения за день Все разделы прочитаны Календарь Правила форума Наше радио

Вернуться   Музыкальный Огонек > ИНСТРУМЕНТАЛЬНАЯ, ДЖАЗ, БЛЮЗ > Инструменталка, Джаз, Блюз > Джаз, блюз > Альбомы > Nat ''King'' Cole


Улыбнитесь
Приятель рассказывал как, перечитывая давеча "Войну и мир", и, наткнувшись на фразу "Пьер Безухов распечатал письмо", минут пять пытался понять: каким образом ему это удалось и где он нашел принтер.

Ответ
 
Опции темы
Старый 15.07.2019, 12:03   #1
alexpika
Долгожитель
 
Аватар для alexpika
 
Группа: Участники
Регистрация: 18.11.2010
Последний визит: Сегодня
Сообщений: 988
Поблагодарил(а): 1,393
Поблагодарили: 14,957

Nat King Cole ‎– Legends Of The 20th Century (1999) (Lossless)



Сборник: Nat King Cole ‎– Legends Of The 20th Century
Год выпуска: 1999
Жанр: Джаз
Формат: FLAC (image + cue)
Качество: Lossless
Количество треков: 22
Размер архива: 282 мб
Язык релиза: английский


Содержание:

1. Straighten Up And Fly Right
2. Body And Soul
3. (Get Your Kicks On) Route 66
4. Baby, Baby All The Time
5. When I Take My Sugar To Tea
6. Nature Boy
7. Lush Life
8. Unforgettable
9. Caravan
10. Smile
11. Send For Me
12. When I Fall In Love
13. The Party's Over
14. Stardust
15. Looking Back
16. St. Louis Blues
17. Mood Indigo
18. Perfidia
19. Oh, Mary, Don't You Weep
20. Ramblin' Rose
21. Funny (Not Much)
22. The Continental (Live)





Комментарий к релизу:

Выпущен фирмой: EMI
Каталог №: 7243 522817 2 5, 522817 2
Файл раздачи: FLAC + cue
Релиз залит на:
yand.Disс

В этом выпуске «Легенды 20-го века» Capitol / EMI рассказывается о Нат Кинг Коуле, прослеживая его работу в качестве джазового пианиста и очень популярного певца. Обе стороны таланта Коула раскрыты в этом 22-трековом альбоме, который включает в себя "Nature Boy", "Unforgettable", "When I Fall In Love" и другие вокальные хиты, а также джазовые работы, такие как "Straighten Up And Fly Right". «When I Take My Sugar To Tea», «(Get Your Kicks On) Route 66» и «Body And Soul». Прекрасная подборка основных моментов из обеих карьер Коула.
Натаниэль Адамс Коулз (17 марта 1919 - 15 февраля 1965), известный как Нат Кинг Коул, был американским джазовым пианистом и вокалистом. Он записал более ста песен, которые стали хитами в поп-чартах. Его трио было образцом для небольших джазовых ансамблей. Коул также снимался в кино и на телевидении и выступал на Бродвее. Он был первым афроамериканцем, появившемся в американских телесериалах.

Скрытый текст


Скрытый текст


лог

Exact Audio Copy V1.0 beta 3 from 29. August 2011

EAC extraction logfile from 14. July 2019, 7:17

Nat King Cole / Legends Of The 20th Century - Nat King Cole (UK Version)

Used drive : TSSTcorpCDDVDW SH-216DB Adapter: 0 ID: 0

Read mode : Secure
Utilize accurate stream : Yes
Defeat audio cache : Yes
Make use of C2 pointers : No

Read offset correction : 6
Overread into Lead-In and Lead-Out : No
Fill up missing offset samples with silence : Yes
Delete leading and trailing silent blocks : No
Null samples used in CRC calculations : Yes
Used interface : Native Win32 interface for Win NT & 2000

Used output format : User Defined Encoder
Selected bitrate : 1024 kBit/s
Quality : High
Add ID3 tag : No
Command line compressor : C:\Program Files (x86)\Exact Audio Copy\Flac\flac.exe
Additional command line options : -V -8 -T "Date=%year%" -T "Genre=%genre%" %source%


TOC of the extracted CD

Track | Start | Length | Start sector | End sector
---------------------------------------------------------
1 | 0:00.00 | 2:29.60 | 0 | 11234
2 | 2:29.60 | 3:21.30 | 11235 | 26339
3 | 5:51.15 | 3:02.22 | 26340 | 40011
4 | 8:53.37 | 3:03.00 | 40012 | 53736
5 | 11:56.37 | 2:23.73 | 53737 | 64534
6 | 14:20.35 | 2:40.15 | 64535 | 76549
7 | 17:00.50 | 3:18.30 | 76550 | 91429
8 | 20:19.05 | 3:12.07 | 91430 | 105836
9 | 23:31.12 | 2:46.33 | 105837 | 118319
10 | 26:17.45 | 2:54.35 | 118320 | 131404
11 | 29:12.05 | 2:30.55 | 131405 | 142709
12 | 31:42.60 | 3:10.67 | 142710 | 157026
13 | 34:53.52 | 2:44.15 | 157027 | 169341
14 | 37:37.67 | 3:15.48 | 169342 | 184014
15 | 40:53.40 | 2:27.47 | 184015 | 195086
16 | 43:21.12 | 2:27.20 | 195087 | 206131
17 | 45:48.32 | 3:22.73 | 206132 | 221354
18 | 49:11.30 | 2:20.45 | 221355 | 231899
19 | 51:32.00 | 2:00.27 | 231900 | 240926
20 | 53:32.27 | 2:49.65 | 240927 | 253666
21 | 56:22.17 | 3:37.33 | 253667 | 269974
22 | 59:59.50 | 3:33.67 | 269975 | 286016


Range status and errors

Selected range

Filename R:\Private\My Audio Ripps\Nat King Cole - Legends Of The 20th Century - Nat King Cole (UK Version).wav

Peak level 99.4 %
Extraction speed 3.2 X
Range quality 100.0 %
Test CRC 6EDA985E
Copy CRC 6EDA985E
Copy OK

No errors occurred


AccurateRip summary

Track 1 accurately ripped (confidence 6) [B9071EC8] (AR v2)
Track 2 accurately ripped (confidence 6) [16F335A0] (AR v2)
Track 3 accurately ripped (confidence 6) [FCFD76D1] (AR v2)
Track 4 accurately ripped (confidence 6) [78CDF893] (AR v2)
Track 5 accurately ripped (confidence 6) [60058809] (AR v2)
Track 6 accurately ripped (confidence 6) [7978A2EA] (AR v2)
Track 7 accurately ripped (confidence 6) [865608A8] (AR v2)
Track 8 accurately ripped (confidence 6) [E834F9D7] (AR v2)
Track 9 accurately ripped (confidence 6) [1A3D03C2] (AR v2)
Track 10 accurately ripped (confidence 6) [EB3903DB] (AR v2)
Track 11 accurately ripped (confidence 6) [D9FC390C] (AR v2)
Track 12 accurately ripped (confidence 6) [C47D8C47] (AR v2)
Track 13 accurately ripped (confidence 6) [21A717AE] (AR v2)
Track 14 accurately ripped (confidence 6) [27CA531B] (AR v2)
Track 15 accurately ripped (confidence 6) [6F05ED0F] (AR v2)
Track 16 accurately ripped (confidence 6) [F7EF674C] (AR v2)
Track 17 accurately ripped (confidence 6) [B8DF3349] (AR v2)
Track 18 accurately ripped (confidence 6) [32FD332E] (AR v2)
Track 19 accurately ripped (confidence 6) [0DFDD1B9] (AR v2)
Track 20 accurately ripped (confidence 6) [77D69B26] (AR v2)
Track 21 accurately ripped (confidence 6) [E87DABA1] (AR v2)
Track 22 accurately ripped (confidence 5) [307C61ED] (AR v2)

All tracks accurately ripped

End of status report

==== Log checksum 07053EC85CD2E29D9659472341EB4AA5CE0A10B9089365A26F99A5204999D09A ====
[свернуть]


Barcode: 724352281725

Дополнительно:
Оцифровку выполнил: shurele
Звуковая аудиокарта: NVIDIA GeForce GTX 750
Оцифрован программой: Exact Audio Copy


Скрытый текст
alexpika вне форумаМужчина  
Вверх
Ответ

Навигация
Вернуться   Музыкальный Огонек > Форум > ИНСТРУМЕНТАЛЬНАЯ, ДЖАЗ, БЛЮЗ > Инструменталка, Джаз, Блюз > Джаз, блюз > Альбомы > Nat ''King'' Cole

Опции темы

Ваши права в разделе
Вы не можете создавать новые темы
Вы не можете отвечать в темах
Вы не можете прикреплять вложения
Вы не можете редактировать свои сообщения

BB коды Вкл.
Смайлы Вкл.
[IMG] код Вкл.
HTML код Выкл.







Текущее время: 20:28. Часовой пояс GMT +4.

    Для правообладателей -Обратная связь    Главная   Форум    Архив    Вверх 

Internet Map Анекдоты,музыку,рецепты и не только найдете Вы в Беседке Индекс цитирования Яндекс.Метрика

Copyright ©2004 - 2019, Музыкальный огонек - Русский шансон.

Powered by vBulletin® Version 3.8.9
Copyright ©2000 - 2019, vBulletin Solutions, Inc. Перевод: zCarot