Главная Форум Регистрация Поиск Сообщения за день Все разделы прочитаны Календарь Правила форума Наше радио

Вернуться   Музыкальный Огонек > МУЗЫКАЛЬНАЯ ПЛАНЕТА > Еврейское местечко > Еврейская музыка (Yiddish, Klezmer и т.д.) > Еврейские альбомы


Улыбнитесь
Приятель рассказывал как, перечитывая давеча "Войну и мир", и, наткнувшись на фразу "Пьер Безухов распечатал письмо", минут пять пытался понять: каким образом ему это удалось и где он нашел принтер.

Ответ
 
Опции темы
Старый 02.12.2019, 10:25   #1
alexpika
Продвинутый
 
Аватар для alexpika
 
Группа: Участники
Регистрация: 18.11.2010
Последний визит: Сегодня
Сообщений: 1,125
Поблагодарил(а): 1,405
Поблагодарили: 18,557

Roswitha Dasch u. Elke Masino - Jiddische Lieder (1993) (Lossless)



Исполнитель: Roswitha Dasch u. Elke Masino
Альбом: Jiddische Lieder
Год выпуска: 1993
Время звучания: 00:47:07
Жанр: Этническая
Формат: FLAC (image + cue)
Качество: Lossless
Количество треков: 15
Размер архива: 208 мб
Язык релиза: идиш


Содержание:

01. Abi gesunt
02. Jidln mitn Fidl
03. A jiddische Mame
04. Un as der Rebbe lacht
05. Roshinkess mit Mandlen
06. Der Hejser Bulgar
07. Ich wel wartn ojf dir
08. Jiddisch Blues
09. Tumbalaika
10. Scherele
11. As der Rebbe Elimelech
12. Ojfn Pripetschik
13. Di grine Kusine
14. A Brifele der Mamen
15. Hava Nagila





Комментарий к релизу:

Выпущен фирмой: artcore music
Каталог №: MD 1003 b
Релиз залит на:
yand.Disс

"Roswitha Dasch u. Elke Masino - Jiddische Lieder" - альбом, представляющий лучшие образцы еврейской народной музыки на языке идиш, в исполнении двух немецких музыкантов: Розвита Даш - вокал и скрипка, Эльке Мазино - фортепиано.[/center]

сканы











[свернуть]


лог

Exact Audio Copy V1.0 beta 3 from 29. August 2011

EAC extraction logfile from 30. November 2019, 9:42

Roswitha Dasch u. Elke Masino / Jiddische Lieder

Used drive : TSSTcorpCDDVDW SH-216DB Adapter: 0 ID: 0

Read mode : Secure
Utilize accurate stream : Yes
Defeat audio cache : Yes
Make use of C2 pointers : No

Read offset correction : 6
Overread into Lead-In and Lead-Out : No
Fill up missing offset samples with silence : Yes
Delete leading and trailing silent blocks : No
Null samples used in CRC calculations : Yes
Used interface : Native Win32 interface for Win NT & 2000

Used output format : User Defined Encoder
Selected bitrate : 1024 kBit/s
Quality : High
Add ID3 tag : No
Command line compressor : C:\Program Files (x86)\Exact Audio Copy\Flac\flac.exe
Additional command line options : -V -8 -T "Date=%year%" -T "Genre=%genre%" %source%


TOC of the extracted CD

Track | Start | Length | Start sector | End sector
---------------------------------------------------------
1 | 0:00.00 | 2:51.03 | 0 | 12827
2 | 2:51.03 | 2:38.15 | 12828 | 24692
3 | 5:29.18 | 3:58.35 | 24693 | 42577
4 | 9:27.53 | 2:59.47 | 42578 | 56049
5 | 12:27.25 | 2:36.43 | 56050 | 67792
6 | 15:03.68 | 3:33.57 | 67793 | 83824
7 | 18:37.50 | 3:31.53 | 83825 | 99702
8 | 22:09.28 | 2:16.10 | 99703 | 109912
9 | 24:25.38 | 2:52.07 | 109913 | 122819
10 | 27:17.45 | 2:45.20 | 122820 | 135214
11 | 30:02.65 | 2:16.23 | 135215 | 145437
12 | 32:19.13 | 3:08.37 | 145438 | 159574
13 | 35:27.50 | 3:37.65 | 159575 | 175914
14 | 39:05.40 | 5:00.38 | 175915 | 198452
15 | 44:06.03 | 3:00.35 | 198453 | 211987


Range status and errors

Selected range

Filename R:\Private\My Audio Ripps\Roswitha Dasch u. Elke Masino - Jiddische Lieder.wav

Peak level 100.0 %
Extraction speed 1.7 X
Range quality 100.0 %
Test CRC 9FCF046A
Copy CRC 9FCF046A
Copy OK

No errors occurred


AccurateRip summary

Track 1 not present in database
Track 2 not present in database
Track 3 not present in database
Track 4 not present in database
Track 5 not present in database
Track 6 not present in database
Track 7 not present in database
Track 8 not present in database
Track 9 not present in database
Track 10 not present in database
Track 11 not present in database
Track 12 not present in database
Track 13 not present in database
Track 14 not present in database
Track 15 not present in database

None of the tracks are present in the AccurateRip database

End of status report

==== Log checksum 696349DE2CAFD0F13F6FA2CFD423A9FF407ECCB510CCC67AD2C45DB33F3C3A26 ====
[свернуть]


Дополнительно:
Рип выполнил: alexpika программой Exact Audio Copy


Скрытый текст
alexpika на форумеМужчина  
Вверх
Ответ

Навигация
Вернуться   Музыкальный Огонек > Форум > МУЗЫКАЛЬНАЯ ПЛАНЕТА > Еврейское местечко > Еврейская музыка (Yiddish, Klezmer и т.д.) > Еврейские альбомы

Опции темы

Ваши права в разделе
Вы не можете создавать новые темы
Вы не можете отвечать в темах
Вы не можете прикреплять вложения
Вы не можете редактировать свои сообщения

BB коды Вкл.
Смайлы Вкл.
[IMG] код Вкл.
HTML код Выкл.







Текущее время: 22:19. Часовой пояс GMT +4.

    Для правообладателей -Обратная связь    Главная   Форум    Архив    Вверх 

Internet Map Анекдоты,музыку,рецепты и не только найдете Вы в Беседке Индекс цитирования Яндекс.Метрика

Copyright ©2004 - 2019, Музыкальный огонек - Русский шансон.

Powered by vBulletin® Version 3.8.9
Copyright ©2000 - 2019, vBulletin Solutions, Inc. Перевод: zCarot